Жак Друэн - Полное собрание анимационных фильмов / Jacques Drouin - Complete Pinscreen Works (Жак Друэн / Jacques Drouin) [1967 - 2004, Канада, Анимация, DVD9] + Sub Eng


 

[Цитировать]

Жак Друэн - Полное собрание анимационных фильмов / Jacques Drouin - Complete Pinscreen Works
Страна: Канада
Жанр: Анимация
Год выпуска: 1967 - 2004.
Продолжительность: 01:51:21
Перевод: Не требуется
Cубтитры: английские
Оригинальная аудиодорожка: английский
Режиссер: Жак Друэн / Jacques Drouin
Описание: Полное собрание анимационных фильмов Жака Друэна - канадского режиссёра-аниматора, продолжающего традицию одного из самых редких методов мультипликации - "игольчатого экрана", называемого также "пинскрин". Эту технику изобрёл в 1931 году французский мультипликатор русского происхождения Александр Алексеев (1901-1982), автор легендарного мультфильма по повести Гоголя «Нос», совместно со своей супругой Клер Паркер (1906-1981). Экран состоит из тысяч иголок, выступающих на 3–5 см (если смотреть издали, он производит впечатление матовой бархатистой поверхности). На него надавливают ладонью и, загоняя часть их вглубь, получают оттиск. При разном освещении возникает изображение, напоминающее жидкую гравюру.
Список мультфильмов:
1. "Trois exercises sur l'écran d'épinges d'Alexéïeff" - Три упражнения с игольчатым экраном Александра Алексеева (1974)
2. "Le Paysagiste / Mindscape" - Пейзажист (1976)
3. "Night angel / L'heure des anges" - Ночной ангел (1976)
4. "Ex-Child /Ex-enfant" - Бывший ребёнок (1994)
5. "A hunting lesson" - Урок охоты (2001) (английские субтитры)
6. "Imprints" - Следы / Отпечатки (2004)
7. "Cutouts" - Вырезки (1967).
8. "Angel trap" - Ангел в ловушке (1968).
9. "The letter" - Письмо (1968).
10. "Angel's Flight Rendez Vous"- Встреча (1969).
Дополнительные материалы: интервью с режиссером, трейлеры, документальный фильм "Портрет Жака Друэна".
Дополнительная информация: Без русского перевода на этом диске только один мультфильм, а остальные не нуждаются в переводе. Меню диска анимированное, озвученное, на английском и французском языках.
Игольчатый экран — техника анимации, изобретённая в 1931 году Александром Алексеевым (патент № 387554 от 11 июля 1935 года).
Игольчатый экран представляет собой вертикальную плоскость, через которую проходят равномерно распределенные длинные тонкие иглы. Иглы могут перемещаться перпендикулярно плоскости экрана. Число игл может быть от нескольких десятков тысяч до миллиона. Иглы, обращенные острием к объективу — не видны, но неравномерно выдвинутые иглы отбрасывают тени разной длины. Если выдвинуть их — картинка темнеет, если втянуть — светлеет. Полностью втянутые иглы дают белый лист без теней. Перемещением источника света и двигая иглы, получают интересные картины.
Сегодня в технике игольчатого экрана работает ученик А. Алексеева канадский мультипликатор Жак Друэн (Jacques Drouin) — «Пейзаж мысли», «Отпечатки», «Урок охоты».
Сэмпл: http://yadi.sk/d/5QkTIrv2DYpaC
Качество видео: DVD9
Формат видео: DVD Video
Видео: MPEG, NTSC 16:9 (720x480) VBR, 29,970 кадров/сек
Аудио: AC-3, 48,0 КГц, 448 Кбит/сек, 6 каналов
Аудио 2: AC-3, 48,0 КГц, 256 Кбит/сек, 2 канала

MediaInfo

Общее
Полное имя : C:\Торренты\Jacques Drouin - Complete Pinscreen Works (1967-2004)\VIDEO_TS\VIDEO_TS.BUP
Формат : DVD Video
Профиль формата : Menu
Размер файла : 44,0 Кбайт
Режим общего битрейта : Переменный
Видео
Идентификатор : 224 (0xE0)
Формат : MPEG Video
Версия формата : Version 2
Вид битрейта : Переменный
Ширина : 720 пикселей
Высота : 480 пикселей
Соотношение сторон : 16:9
Частота кадров : 29,970 кадров/сек
Стандарт вещания : NTSC
Метод сжатия : С потерями
Аудио
Формат : AC-3
Формат/Информация : Audio Coding 3
Каналы : 2 канала
Частота : 48,0 КГц
Метод сжатия : С потерями
Текст
Формат : RLE
Формат/Информация : Run-length encoding
Битовая глубина : 2 бит
Общее
Полное имя : C:\Торренты\Jacques Drouin - Complete Pinscreen Works (1967-2004)\VIDEO_TS\VIDEO_TS.IFO
Формат : DVD Video
Профиль формата : Menu
Размер файла : 44,0 Кбайт
Режим общего битрейта : Переменный
Видео
Идентификатор : 224 (0xE0)
Формат : MPEG Video
Версия формата : Version 2
Вид битрейта : Переменный
Ширина : 720 пикселей
Высота : 480 пикселей
Соотношение сторон : 16:9
Частота кадров : 29,970 кадров/сек
Стандарт вещания : NTSC
Метод сжатия : С потерями
Аудио
Формат : AC-3
Формат/Информация : Audio Coding 3
Каналы : 2 канала
Частота : 48,0 КГц
Метод сжатия : С потерями
Текст
Формат : RLE
Формат/Информация : Run-length encoding
Битовая глубина : 2 бит
Общее
Полное имя : C:\Торренты\Jacques Drouin - Complete Pinscreen Works (1967-2004)\VIDEO_TS\VIDEO_TS.VOB
Формат : MPEG-PS
Размер файла : 340 Мбайт
Продолжительность : 2 с. 336 мс.
Общий поток : 1222 Мбит/сек
Видео
Идентификатор : 224 (0xE0)
Формат : MPEG Video
Версия формата : Version 2
Профиль формата : Main@Main
Параметр BVOP формата : Да
Параметр матрицы формата : Выборочная
Параметр GOP формата : Variable
Продолжительность : 2 с. 336 мс.
Битрейт : 1197 Мбит/сек
Максимальный битрейт : 7000 Кбит/сек
Ширина : 720 пикселей
Высота : 480 пикселей
Соотношение сторон : 16:9
Частота кадров : 29,970 кадров/сек
Стандарт вещания : NTSC
Цветовое пространство : YUV
Субдискретизация насыщенности : 4:2:0
Битовая глубина : 8 бит
Тип развёртки : Прогрессивная
Порядок развёртки : Нижнее поле первое
Метод сжатия : С потерями
Бит/(Пиксели*Кадры) : 115.612
Временной код первого кадра : 01:00:00:00
Оригинал временного кода : Group of pictures header
Размер потока : 333 Мбайт (98%)
Аудио
Идентификатор : 189 (0xBD)-128 (0x80)
Формат : AC-3
Формат/Информация : Audio Coding 3
Расширение режима : CM (complete main)
Параметр Endianness формата : Big
Режим смешивания : DVD-Video
Продолжительность : 2 с. 336 мс.
Вид битрейта : Постоянный
Битрейт : 192 Кбит/сек
Каналы : 2 канала
Расположение каналов : Front: L R
Частота : 48,0 КГц
Битовая глубина : 16 бит
Метод сжатия : С потерями
Размер потока : 54,8 Кбайт (0%)
Текст #1
Идентификатор : 189 (0xBD)-32 (0x20)
Формат : RLE
Формат/Информация : Run-length encoding
Режим смешивания : DVD-Video
Текст #2
Идентификатор : 189 (0xBD)-33 (0x21)
Формат : RLE
Формат/Информация : Run-length encoding
Режим смешивания : DVD-Video
Меню
Общее
Полное имя : C:\Торренты\Jacques Drouin - Complete Pinscreen Works (1967-2004)\VIDEO_TS\VTS_01_0.BUP
Формат : DVD Video
Профиль формата : Program
Размер файла : 18,0 Кбайт
Продолжительность : 19 с.
Режим общего битрейта : Переменный
Общий поток : 7575 бит/сек
Видео
Идентификатор : 224 (0xE0)
Формат : MPEG Video
Версия формата : Version 2
Продолжительность : 19 с.
Вид битрейта : Переменный
Ширина : 720 пикселей
Высота : 480 пикселей
Соотношение сторон : 16:9
Частота кадров : 29,970 кадров/сек
Стандарт вещания : NTSC
Метод сжатия : С потерями
Аудио
Идентификатор : 128 (0x80)
Формат : AC-3
Формат/Информация : Audio Coding 3
Продолжительность : 19 с.
Каналы : 6 каналов
Частота : 48,0 КГц
Метод сжатия : С потерями
Язык : French
Меню
Продолжительность : 19 с.
00:00:00.000 : Chapter 1
List (Audio) : 0
Общее
Полное имя : C:\Торренты\Jacques Drouin - Complete Pinscreen Works (1967-2004)\VIDEO_TS\VTS_01_0.IFO
Формат : DVD Video
Профиль формата : Program
Размер файла : 18,0 Кбайт
Продолжительность : 19 с.
Режим общего битрейта : Переменный
Общий поток : 7575 бит/сек
Видео
Идентификатор : 224 (0xE0)
Формат : MPEG Video
Версия формата : Version 2
Продолжительность : 19 с.
Вид битрейта : Переменный
Ширина : 720 пикселей
Высота : 480 пикселей
Соотношение сторон : 16:9
Частота кадров : 29,970 кадров/сек
Стандарт вещания : NTSC
Метод сжатия : С потерями
Аудио
Идентификатор : 128 (0x80)
Формат : AC-3
Формат/Информация : Audio Coding 3
Продолжительность : 19 с.
Каналы : 6 каналов
Частота : 48,0 КГц
Метод сжатия : С потерями
Язык : French
Меню
Продолжительность : 19 с.
00:00:00.000 : Chapter 1
List (Audio) : 0
Общее
Полное имя : C:\Торренты\Jacques Drouin - Complete Pinscreen Works (1967-2004)\VIDEO_TS\VTS_01_0.VOB
Формат : MPEG-PS
Размер файла : 114 Кбайт
Продолжительность : 400 мс.
Общий поток : 2335 Кбит/сек
Видео
Идентификатор : 224 (0xE0)
Формат : MPEG Video
Версия формата : Version 2
Профиль формата : Main@Main
Параметр BVOP формата : Да
Параметр матрицы формата : Выборочная
Продолжительность : 400 мс.
Максимальный битрейт : 2000 Кбит/сек
Ширина : 720 пикселей
Высота : 480 пикселей
Соотношение сторон : 4:3
Частота кадров : 29,970 кадров/сек
Стандарт вещания : NTSC
Цветовое пространство : YUV
Субдискретизация насыщенности : 4:2:0
Битовая глубина : 8 бит
Тип развёртки : Чересстрочная
Порядок развёртки : Верхнее поле первое
Метод сжатия : С потерями
Временной код первого кадра : 00:00:00:01
Оригинал временного кода : Group of pictures header
Текст
Идентификатор : 189 (0xBD)-32 (0x20)
Формат : RLE
Формат/Информация : Run-length encoding
Режим смешивания : DVD-Video
Задержка видео : -66 мс.
Меню
Общее
Полное имя : C:\Торренты\Jacques Drouin - Complete Pinscreen Works (1967-2004)\VIDEO_TS\VTS_01_1.VOB
Формат : MPEG-PS
Размер файла : 17,6 Мбайт
Продолжительность : 19 с.
Общий поток : 7557 Кбит/сек
Видео
Идентификатор : 224 (0xE0)
Формат : MPEG Video
Версия формата : Version 2
Профиль формата : Main@Main
Параметр BVOP формата : Да
Параметр матрицы формата : Выборочная
Параметр GOP формата : Variable
Продолжительность : 19 с.
Битрейт : 7000 Кбит/сек
Ширина : 720 пикселей
Высота : 480 пикселей
Соотношение сторон : 16:9
Частота кадров : 29,970 кадров/сек
Стандарт вещания : NTSC
Цветовое пространство : YUV
Субдискретизация насыщенности : 4:2:0
Битовая глубина : 8 бит
Тип развёртки : Прогрессивная
Порядок развёртки : Нижнее поле первое
Метод сжатия : С потерями
Бит/(Пиксели*Кадры) : 0.676
Временной код первого кадра : 01:00:00:00
Оригинал временного кода : Group of pictures header
Размер потока : 16,1 Мбайт (92%)
Основные цвета : BT.601 NTSC
Характеристики трансфера : BT.601
Коэффициенты матрицы : BT.601
Аудио
Идентификатор : 189 (0xBD)-128 (0x80)
Формат : AC-3
Формат/Информация : Audio Coding 3
Расширение режима : CM (complete main)
Параметр Endianness формата : Big
Режим смешивания : DVD-Video
Продолжительность : 19 с.
Вид битрейта : Постоянный
Битрейт : 448 Кбит/сек
Каналы : 6 каналов
Расположение каналов : Front: L C R, Side: L R, LFE
Частота : 48,0 КГц
Битовая глубина : 16 бит
Метод сжатия : С потерями
Задержка видео : -67 мс.
Размер потока : 1,04 Мбайт (6%)

Отчет DVDInfo

Title: Acer
Size: 7.67 Gb ( 8 042 368 KBytes ) - DVD-9
Enabled regions: 1, 2, 3, 4, 5, 6, 7, 8
VTS_01 :
Play Length: 00:00:19
Video: NTSC 16:9 (720x480) VBR, Auto Pan&Scan
Audio:
Francais (Dolby AC3, 6 ch)
VTS_02 :
Play Length: 00:40:46
Video: NTSC 16:9 (720x480) VBR, Auto Pan&Scan
Audio:
Francais (Dolby AC3, 6 ch)
Francais (Dolby AC3, 2 ch)
VTS_03 :
Play Length: 00:40:46
Video: NTSC 16:9 (720x480) VBR, Auto Pan&Scan
Audio:
English (Dolby AC3, 6 ch)
English (Dolby AC3, 2 ch)
VTS_04 :
Play Length: 00:04:04
Video: NTSC 4:3 (720x480) VBR
Audio:
Francais (Dolby AC3, 6 ch)
Francais (Dolby AC3, 2 ch)
VTS_05 :
Play Length: 00:07:33
Video: NTSC 4:3 (720x480) VBR
Audio:
Francais (Dolby AC3, 6 ch)
Francais (Dolby AC3, 2 ch)
VTS_06 :
Play Length: 00:18:38
Video: NTSC 4:3 (720x480) VBR
Audio:
Francais (Dolby AC3, 6 ch)
Francais (Dolby AC3, 2 ch)
VTS_07 :
Play Length: 00:04:59
Video: NTSC 4:3 (720x480) VBR
Audio:
Francais (Dolby AC3, 6 ch)
Francais (Dolby AC3, 2 ch)
VTS_08 :
Play Length: 00:13:06
Video: NTSC 4:3 (720x480) VBR
Audio:
Francais (Dolby AC3, 6 ch)
Francais (Dolby AC3, 2 ch)
VTS_09 :
Play Length: 00:13:06
Video: NTSC 4:3 (720x480) VBR
Audio:
English (Dolby AC3, 6 ch)
English (Dolby AC3, 2 ch)
VTS_10 :
Play Length: 00:06:19
Video: NTSC 4:3 (720x480) VBR
Audio:
Francais (Dolby AC3, 6 ch)
Francais (Dolby AC3, 2 ch)
VTS_11 :
Play Length: 00:01:09
Video: NTSC 4:3 (720x480) VBR
Audio:
English (Dolby AC3, 2 ch)
VTS_12 :
Play Length: 00:01:09
Video: NTSC 4:3 (720x480) VBR
Audio:
English (Dolby AC3, 2 ch)
VTS_13 :
Play Length: 00:01:12
Video: NTSC 4:3 (720x480) VBR
Audio:
English (Dolby AC3, 2 ch)
VTS_14 :
Play Length: 00:01:13
Video: NTSC 4:3 (720x480) VBR
Audio:
Francais (Dolby AC3, 2 ch)
VTS_15 :
Play Length: 00:02:04
Video: NTSC 4:3 (720x480) VBR
Audio:
English (Dolby AC3, 2 ch)
VTS_16 :
Play Length: 00:05:47
Video: NTSC 4:3 (720x480) VBR
Audio:
Francais (Dolby AC3, 2 ch)
VTS_17 :
Play Length: 00:05:47
Video: NTSC 4:3 (720x480) VBR
Audio:
English (Dolby AC3, 2 ch)
VTS_18 :
Play Length: 00:00:53
Video: NTSC 4:3 (720x480) VBR
Audio:
Francais (Dolby AC3, 2 ch)
VTS_19 :
Play Length: 00:00:38
Video: NTSC 4:3 (720x480) VBR
Audio:
Francais (Dolby AC3, 2 ch)
VTS_20 :
Play Length: 00:06:19
Video: NTSC 16:9 (720x480) VBR, Auto Pan&Scan
Audio:
Francais (Dolby AC3, 6 ch)
Francais (Dolby AC3, 2 ch)
VTS_21 :
Play Length: 00:06:20
Video: NTSC 16:9 (720x480) VBR, Auto Pan&Scan
Audio:
English (Dolby AC3, 6 ch)
English (Dolby AC3, 2 ch)
Menu Video:
NTSC 16:9 (720x480) VBR
Auto Pan&Scan
Menu Audio:
Not specified (Dolby AC3, 2 ch)
Menu Subtitles:
Not specified
Menu Francais Language Unit :
Root Menu

Скриншот c названием диска

Скриншоты меню

Скриншоты дополнительных материалов




Показать сообщения:    

Текущее время: 06-Дек 11:10

Часовой пояс: UTC + 3


Вы не можете начинать темы
Вы не можете отвечать на сообщения
Вы не можете редактировать свои сообщения
Вы не можете удалять свои сообщения
Вы не можете голосовать в опросах
Вы не можете прикреплять файлы к сообщениям
Вы не можете скачивать файлы