Юло Пикков / Ülo Pikkov – Четыре анимационных фильма [2001-2008, авторская анимация, абсурдный юмор, DVDRip]


 

[Цитировать]

Юло Пикков / Ülo Pikkov – Четыре анимационных фильма
Юло Пикков – молодой мэтр эстонской анимации. Сделал больше десятка авторских мультфильмов. Имеет художественное и юридическое образование. Эксперт по правовым вопросам эстонского кинофонда. Доцент Эстонской академии искусств. Автор книги «Анимасофия» (2010), посвящённой теории создания анимации.
Всадник без головы / Peata Ratsanik
Страна: Эстония
Жанр: авторская анимация
Год выпуска: 2001
Продолжительность: 00:09:31
Перевод: Не требуется
Cубтитры: нет
Описание: Абсурдная пародия на вестерн.
Приз за лучший фильм на фестивале в Оттаве (2001)
Качество видео: DVDRip
Формат видео: AVI
Видео: 2373 kbps, 720х528 (4:3), 25.000 fps, MPEG-4 Visual (XviD)
Аудио: 224 kbps, 48.0 kHz, 2 channels, MPEG Audio (MP3)

MediaInfo

Общее
Полное имя : Peata Ratsanik (2001).avi
Формат : AVI
Формат/Информация : Audio Video Interleave
Размер файла : 178 Мбайт
Продолжительность : 9 м. 31 с.
Общий поток : 2610 Кбит/сек
Программа кодирования : TMPGEnc Video Mastering Works 5 Version. 5.0.5.32
Библиотека кодирования : TMPGEnc Video Mastering Works 5 Version. 5.0.5.32
Видео
Идентификатор : 0
Формат : MPEG-4 Visual
Профиль формата : Advanced Simple@L5
Параметр BVOP формата : 2
Параметр QPel формата : Нет
Параметр GMC формата : Без точки перехода
Параметр матрицы формата : Default (MPEG)
Режим смешивания : Сжатый битовый поток
Идентификатор кодека : XVID
Идентификатор кодека/Подсказка : XviD
Продолжительность : 9 м. 31 с.
Битрейт : 2373 Кбит/сек
Ширина : 720 пикселей
Высота : 528 пикселей
Соотношение сторон : 4:3
Частота кадров : 25,000 кадров/сек
Цветовое пространство : YUV
Субдискретизация насыщенности : 4:2:0
Битовая глубина : 8 бит
Тип развёртки : Прогрессивная
Метод сжатия : С потерями
Бит/(Пиксели*Кадры) : 0.250
Размер потока : 162 Мбайт (91%)
Библиотека кодирования : XviD 64
Аудио
Идентификатор : 1
Формат : MPEG Audio
Версия формата : Version 1
Профиль формата : Layer 3
Режим : Joint stereo
Расширение режима : MS Stereo
Идентификатор кодека : 55
Идентификатор кодека/Подсказка : MP3
Продолжительность : 9 м. 31 с.
Вид битрейта : Постоянный
Битрейт : 224 Кбит/сек
Каналы : 2 канала
Частота : 48,0 КГц
Метод сжатия : С потерями
Размер потока : 15,3 Мбайт (9%)
Выравнивание : Соединение по промежуткам
Продолжительность промежутка : 40 мс. (1,00 видеокадр)
Время предзагрузки промежутка : 408 мс.

Скриншот c названием фильма

Скриншоты

Суперлюбовь / Superlove
Страна: Эстония
Жанр: авторская анимация
Год выпуска: 2001
Продолжительность: 00:00:55
Перевод: не требуется
Субтитры: нет
Описание: Абсурдный сюжет, в котором постаревший Супермен испытывает неразделённые чувства… к аисту.
Качество видео: DVDRip
Формат видео: AVI
Видео: 2217 kbps, 720х544 (4:3), 25.000 fps, MPEG-4 Visual (XviD)
Аудио: 224 kbps, 48.0 kHz, 2 channels, MPEG Audio (MP3)

MediaInfo

Общее
Полное имя : Superlove (2001).avi
Формат : AVI
Формат/Информация : Audio Video Interleave
Размер файла : 16,3 Мбайт
Продолжительность : 55 с.
Общий поток : 2456 Кбит/сек
Программа кодирования : TMPGEnc Video Mastering Works 5 Version. 5.0.5.32
Библиотека кодирования : TMPGEnc Video Mastering Works 5 Version. 5.0.5.32
Видео
Идентификатор : 0
Формат : MPEG-4 Visual
Профиль формата : Advanced Simple@L5
Параметр BVOP формата : 2
Параметр QPel формата : Нет
Параметр GMC формата : Без точки перехода
Параметр матрицы формата : Default (MPEG)
Режим смешивания : Сжатый битовый поток
Идентификатор кодека : XVID
Идентификатор кодека/Подсказка : XviD
Продолжительность : 55 с.
Битрейт : 2217 Кбит/сек
Ширина : 720 пикселей
Высота : 544 пикселя
Соотношение сторон : 4:3
Частота кадров : 25,000 кадров/сек
Цветовое пространство : YUV
Субдискретизация насыщенности : 4:2:0
Битовая глубина : 8 бит
Тип развёртки : Прогрессивная
Метод сжатия : С потерями
Бит/(Пиксели*Кадры) : 0.226
Размер потока : 14,7 Мбайт (90%)
Библиотека кодирования : XviD 64
Аудио
Идентификатор : 1
Формат : MPEG Audio
Версия формата : Version 1
Профиль формата : Layer 3
Режим : Joint stereo
Расширение режима : MS Stereo
Идентификатор кодека : 55
Идентификатор кодека/Подсказка : MP3
Продолжительность : 55 с.
Вид битрейта : Постоянный
Битрейт : 224 Кбит/сек
Каналы : 2 канала
Частота : 48,0 КГц
Метод сжатия : С потерями
Размер потока : 1,48 Мбайт (9%)
Выравнивание : Соединение по промежуткам
Продолжительность промежутка : 40 мс. (1,01 видеокадр)
Время предзагрузки промежутка : 408 мс.

Скриншот c названием фильма

Скриншоты

Вкус жизни / Elu Maitse
Страна: Эстония
Жанр: авторская анимация
Год выпуска: 2006
Продолжительность: 00:11:39
Перевод: не требуется
Субтитры: нет
Описание: Абсурдно-философский фильм о телесных ощущениях.
Качество видео: DVDRip
Формат видео: AVI
Видео: 2385 kbps, 720х400 (16:9), 25.000 fps, MPEG-4 Visual (XviD)
Аудио: 224 kbps, 48.0 kHz, 2 channels, MPEG Audio (MP3)

MediaInfo

Общее
Полное имя : Elu Maitse (2006).avi
Формат : AVI
Формат/Информация : Audio Video Interleave
Размер файла : 219 Мбайт
Продолжительность : 11 м.
Общий поток : 2622 Кбит/сек
Программа кодирования : TMPGEnc Video Mastering Works 5 Version. 5.0.5.32
Библиотека кодирования : TMPGEnc Video Mastering Works 5 Version. 5.0.5.32
Видео
Идентификатор : 0
Формат : MPEG-4 Visual
Профиль формата : Advanced Simple@L5
Параметр BVOP формата : 2
Параметр QPel формата : Нет
Параметр GMC формата : Без точки перехода
Параметр матрицы формата : Default (MPEG)
Режим смешивания : Сжатый битовый поток
Идентификатор кодека : XVID
Идентификатор кодека/Подсказка : XviD
Продолжительность : 11 м.
Битрейт : 2385 Кбит/сек
Ширина : 720 пикселей
Высота : 400 пикселей
Соотношение сторон : 16:9
Частота кадров : 25,000 кадров/сек
Цветовое пространство : YUV
Субдискретизация насыщенности : 4:2:0
Битовая глубина : 8 бит
Тип развёртки : Прогрессивная
Метод сжатия : С потерями
Бит/(Пиксели*Кадры) : 0.331
Размер потока : 199 Мбайт (91%)
Библиотека кодирования : XviD 64
Аудио
Идентификатор : 1
Формат : MPEG Audio
Версия формата : Version 1
Профиль формата : Layer 3
Режим : Joint stereo
Расширение режима : MS Stereo
Идентификатор кодека : 55
Идентификатор кодека/Подсказка : MP3
Продолжительность : 11 м.
Вид битрейта : Постоянный
Битрейт : 224 Кбит/сек
Каналы : 2 канала
Частота : 48,0 КГц
Метод сжатия : С потерями
Размер потока : 18,7 Мбайт (9%)
Выравнивание : Соединение по промежуткам
Продолжительность промежутка : 40 мс. (1,00 видеокадр)
Время предзагрузки промежутка : 408 мс.

Скриншот c названием фильма

Скриншоты

Диалоги / Dialogos
Страна: Эстония
Жанр: авторская анимация
Год выпуска: 2008
Продолжительность: 00:04:47
Перевод: не требуется
Субтитры: нет
Описание: Череда коротких шуток, половина которых основана на классических сказках.
Фильм нацарапан непосредственно на киноплёнке.
Качество видео: DVDRip
Формат видео: AVI
Видео: 2381 kbps, 720х384 (1,85:1), 25.000 fps, MPEG-4 Visual (XviD)
Аудио: 224 kbps, 48.0 kHz, 2 channels, MPEG Audio (MP3)

MediaInfo

Общее
Полное имя : Dialogos (2008).avi
Формат : AVI
Формат/Информация : Audio Video Interleave
Размер файла : 89,6 Мбайт
Продолжительность : 4 м. 47 с.
Общий поток : 2618 Кбит/сек
Программа кодирования : Lavf54.63.104
Видео
Идентификатор : 0
Формат : MPEG-4 Visual
Профиль формата : Simple@L3
Параметр BVOP формата : Нет
Параметр QPel формата : Нет
Параметр GMC формата : Без точки перехода
Параметр матрицы формата : Default (H.263)
Идентификатор кодека : XVID
Идентификатор кодека/Подсказка : XviD
Продолжительность : 4 м. 47 с.
Битрейт : 2381 Кбит/сек
Ширина : 720 пикселей
Высота : 384 пикселя
Соотношение сторон : 1,85:1
Частота кадров : 25,000 кадров/сек
Цветовое пространство : YUV
Субдискретизация насыщенности : 4:2:0
Битовая глубина : 8 бит
Тип развёртки : Прогрессивная
Метод сжатия : С потерями
Бит/(Пиксели*Кадры) : 0.345
Размер потока : 81,5 Мбайт (91%)
Библиотека кодирования : XviD 1.2.1 (UTC 2008-12-04)
Аудио
Идентификатор : 1
Формат : MPEG Audio
Версия формата : Version 1
Профиль формата : Layer 3
Режим : Joint stereo
Расширение режима : MS Stereo
Идентификатор кодека : 55
Идентификатор кодека/Подсказка : MP3
Продолжительность : 4 м. 47 с.
Вид битрейта : Постоянный
Битрейт : 224 Кбит/сек
Каналы : 2 канала
Частота : 48,0 КГц
Метод сжатия : С потерями
Размер потока : 7,67 Мбайт (9%)
Выравнивание : Соединение по промежуткам
Продолжительность промежутка : 24 мс. (0,60 видеокадр)

Скриншот c названием фильма

Скриншоты




Показать сообщения:    

Текущее время: 10-Дек 21:32

Часовой пояс: UTC + 3


Вы не можете начинать темы
Вы не можете отвечать на сообщения
Вы не можете редактировать свои сообщения
Вы не можете удалять свои сообщения
Вы не можете голосовать в опросах
Вы не можете прикреплять файлы к сообщениям
Вы не можете скачивать файлы