Дэнни / Danny Boy (Марек Скробецки / Marek Skrobecki) [2010, Польша, авторская анимация, сюрреализм, WEBRip-AVC]


 

[Цитировать]

Дэнни / Danny Boy
Страна: Польша
Жанр: авторская анимация, сюрреализм
Год выпуска: 2010
Продолжительность: 00:10:01
Перевод: не требуется
Cубтитры: нет
Режиссёр: Марек Скробецки / Marek Skrobecki
Описание:
Действие происходит в абсурдном мире, где все люди лишены голов (чем ежедневно и мучаются). Молодой человек по имени Дэнни - единственный у кого голова на месте, но это не делает его счастливым. Ведь в таком виде он не чувствует себя полноправным членом общества. Даже обрести любовь он сможет лишь потеряв голову…
Качество видео: WEBRip-AVC
Формат видео: MP4
Видео: 2365 kbps, 1920х1080 (16:9), 25.000 fps, AVC (High@L3.1)
Аудио: 137 kbps, 44.1 kHz, 2 channels, AAC (LC)

MediaInfo

Общее
Полное имя : Danny Boy (2010).mp4
Формат : MPEG-4
Профиль формата : Base Media / Version 2
Идентификатор кодека : mp42
Размер файла : 180 Мбайт
Продолжительность : 10 м.
Режим общего битрейта : Переменный
Общий поток : 2507 Кбит/сек
Дата кодирования : UTC 2011-08-29 11:08:46
Дата пометки : UTC 2011-08-29 11:08:46
gsst : 0
gstd : 601880
gssd : B4A7DDA07HH1324588655291872
gshh : r7.fra07t11.c.youtube.com
Видео
Идентификатор : 1
Формат : AVC
Формат/Информация : Advanced Video Codec
Профиль формата : High@L4.0
Параметр CABAC формата : Да
Параметр ReFrames формата : 1 кадр
Идентификатор кодека : avc1
Идентификатор кодека/Информация : Advanced Video Coding
Продолжительность : 10 м.
Битрейт : 2365 Кбит/сек
Максимальный битрейт : 6620 Кбит/сек
Ширина : 1920 пикселей
Высота : 1080 пикселей
Соотношение сторон : 16:9
Режим частоты кадров : Постоянный
Частота кадров : 25,000 кадров/сек
Цветовое пространство : YUV
Субдискретизация насыщенности : 4:2:0
Битовая глубина : 8 бит
Тип развёртки : Прогрессивная
Бит/(Пиксели*Кадры) : 0.046
Размер потока : 170 Мбайт (94%)
Дата пометки : UTC 2011-08-29 11:08:49
Аудио
Идентификатор : 2
Формат : AAC
Формат/Информация : Advanced Audio Codec
Профиль формата : LC
Идентификатор кодека : 40
Продолжительность : 10 м.
Вид битрейта : Переменный
Битрейт : 137 Кбит/сек
Максимальный битрейт : 237 Кбит/сек
Каналы : 2 канала
Расположение каналов : Front: L R
Частота : 44,1 КГц
Метод сжатия : С потерями
Размер потока : 9,86 Мбайт (5%)
Заголовок : IsoMedia File Produced by Google, 5-11-2011
Дата кодирования : UTC 2011-08-29 11:08:47
Дата пометки : UTC 2011-08-29 11:08:49

Скриншот c названием фильма

Скриншоты




Показать сообщения:    

Текущее время: 10-Дек 11:53

Часовой пояс: UTC + 3


Вы не можете начинать темы
Вы не можете отвечать на сообщения
Вы не можете редактировать свои сообщения
Вы не можете удалять свои сообщения
Вы не можете голосовать в опросах
Вы не можете прикреплять файлы к сообщениям
Вы не можете скачивать файлы