Марафон / Maraton (Каспар Янцис / Kaspar Jancis) [2006, Эстония, авторская анимация, DVDRip]


 

[Цитировать]

Марафон / Maraton
Страна: Эстония
Жанр: авторская анимация
Год выпуска: 2006
Продолжительность: 00:14:43
Перевод: Не требуется
Cубтитры: нет
Режиссёр: Каспар Янцис / Kaspar Jancis
Описание: Находящийся в розыске террорист, женщина-сульптор и её тщедушный натурщик, мужественный трубач из пожарной команды, мать-одиночка, состоящая в банде аферистов… Это лишь часть персонажей, взаимодействующих в этой истории, произошедшей во время проведения марафона в неком итальянском городке.
Очень своеобразный юмор напоминает творчество Прийта Пярна, и не случайно – на этом фильме он был консультантом по сценарию.
Доп. информация:
Гран-При анимационного фестиваля "Balkanima" в Белграде (2007)
Приз за лучший анимационный фильм на фестивале "Castelli Animati" в Риме (2007)
Качество видео: DVDRip
Формат видео: AVI
Видео: 2385 kbps, 720х400 (16:9), 25.000 fps, MPEG-4 (XviD)
Аудио: 224 kbps, 48.0 kHz, 2 channels, MPEG Audio (MP3)

MediaInfo

Общее
Полное имя : Maraton (2006).avi
Формат : AVI
Формат/Информация : Audio Video Interleave
Размер файла : 276 Мбайт
Продолжительность : 14 м.
Общий поток : 2622 Кбит/сек
Программа кодирования : TMPGEnc Video Mastering Works 5 Version. 5.0.5.32
Библиотека кодирования : TMPGEnc Video Mastering Works 5 Version. 5.0.5.32
Видео
Идентификатор : 0
Формат : MPEG-4 Visual
Профиль формата : Advanced Simple@L5
Параметр BVOP формата : 2
Параметр QPel формата : Нет
Параметр GMC формата : Без точки перехода
Параметр матрицы формата : Default (MPEG)
Режим смешивания : Сжатый битовый поток
Идентификатор кодека : XVID
Идентификатор кодека/Подсказка : XviD
Продолжительность : 14 м.
Битрейт : 2385 Кбит/сек
Ширина : 720 пикселей
Высота : 400 пикселей
Соотношение сторон : 16:9
Частота кадров : 25,000 кадров/сек
Цветовое пространство : YUV
Субдискретизация насыщенности : 4:2:0
Битовая глубина : 8 бит
Тип развёртки : Прогрессивная
Метод сжатия : С потерями
Бит/(Пиксели*Кадры) : 0.331
Размер потока : 251 Мбайт (91%)
Библиотека кодирования : XviD 64
Аудио
Идентификатор : 1
Формат : MPEG Audio
Версия формата : Version 1
Профиль формата : Layer 3
Режим : Joint stereo
Расширение режима : MS Stereo
Идентификатор кодека : 55
Идентификатор кодека/Подсказка : MP3
Продолжительность : 14 м.
Вид битрейта : Постоянный
Битрейт : 224 Кбит/сек
Каналы : 2 канала
Частота : 48,0 КГц
Метод сжатия : С потерями
Размер потока : 23,6 Мбайт (9%)
Выравнивание : Соединение по промежуткам
Продолжительность промежутка : 40 мс. (1,00 видеокадр)
Время предзагрузки промежутка : 408 мс.

Скриншот c названием фильма

Скриншоты




Показать сообщения:    

Текущее время: 10-Дек 13:48

Часовой пояс: UTC + 3


Вы не можете начинать темы
Вы не можете отвечать на сообщения
Вы не можете редактировать свои сообщения
Вы не можете удалять свои сообщения
Вы не можете голосовать в опросах
Вы не можете прикреплять файлы к сообщениям
Вы не можете скачивать файлы