Нити Мейбриджа / Maiburijji no ito (Коджи Ямамура / Koji Yamamura) [2011, Япония, Канада, Анимация, DVDRip] + Sub Rus


 

[Цитировать]

Нити Мейбриджа / Maiburijji no ito
Страна: Япония, Канада
Жанр: Анимация
Год выпуска: 2011
Продолжительность: 00:12:14
Перевод: Не требуется
Cубтитры: русские
Режиссер: Коджи Ямамура / Koji Yamamura
В ролях:
Описание: В фильме параллельно рассказывается две истории : о пионере кинематографа Эдварде Мейбридже, его фильмах и его изобретении (очень советую ознакомиться перед просмотром с биографией ученого) и девочке, живущей в современном Токио.
Обе истории соединяет образ мимолетности времени, которое так хотел схватить и навечно запечатлеть на своих дисках чудаковатый старик.
Качество видео: DVDRip
Формат видео: AVI
Видео: XviD, 1932 Кбит/с, 704x384, 23.976 fps
Аудио: MP3, 2 ch, 124 Кбит/с, 48.0 KHz
Формат субтитров: softsub (SRT)

MediaInfo

General
Complete name : Maiburijji no ito.avi
Format : AVI
Format/Info : Audio Video Interleave
File size : 181 MiB
Duration : 12mn 14s
Overall bit rate mode : Variable
Overall bit rate : 2 070 Kbps
Writing application : VirtualDubMod 1.5.10.2 (build 2540/release)
Writing library : VirtualDub build 32842/release
Video
ID : 0
Format : MPEG-4 Visual
Format profile : Advanced Simple@L5
Format settings, BVOP : 2
Format settings, QPel : No
Format settings, GMC : No warppoints
Format settings, Matrix : Default (H.263)
Muxing mode : Packed bitstream
Codec ID : XVID
Codec ID/Hint : XviD
Duration : 12mn 14s
Bit rate : 1 933 Kbps
Width : 704 pixels
Height : 384 pixels
Display aspect ratio : 1.85:1
Frame rate : 23.976 fps
Color space : YUV
Chroma subsampling : 4:2:0
Bit depth : 8 bits
Scan type : Progressive
Compression mode : Lossy
Bits/(Pixel*Frame) : 0.298
Stream size : 169 MiB (93%)
Writing library : XviD 64
Audio
ID : 1
Format : MPEG Audio
Format version : Version 1
Format profile : Layer 3
Mode : Joint stereo
Mode extension : MS Stereo
Codec ID : 55
Codec ID/Hint : MP3
Duration : 12mn 14s
Bit rate mode : Variable
Bit rate : 128 Kbps
Channel(s) : 2 channels
Sampling rate : 48.0 KHz
Compression mode : Lossy
Stream size : 10.8 MiB (6%)
Alignment : Aligned on interleaves
Interleave, duration : 24 ms (0.58 video frame)
Interleave, preload duration : 149 ms
Writing library : LAME3.90.
Encoding settings : -m j -V 4 -q 2 -lowpass 17.6 --abr 128

Скриншот c названием фильма

Скриншоты

Субтитры

1
00:00:16,308 --> 00:00:22,189
Нити Мейбриджа
2
00:00:22,481 --> 00:00:25,838
Эдвард Мейбридж
(1830 - 1904)
3
00:00:25,839 --> 00:00:29,196
Одна из важнейших фигур в
истории создания кинематографа
4
00:00:29,863 --> 00:00:36,370
1880 год.
Его изобретение, зоопраксископ,
проецировало на экран
"живые картинки",
5
00:00:36,787 --> 00:00:42,751
представляющие собой
последовательность фотографий
движущихся людей и животных
6
00:01:02,020 --> 00:01:06,400
Калифорния, 1877 год
7
00:01:14,199 --> 00:01:16,994
Токио
8
00:08:43,315 --> 00:08:47,819
Чикаго, 1893



Показать сообщения:    

Текущее время: 04-Дек 15:11

Часовой пояс: UTC + 3


Вы не можете начинать темы
Вы не можете отвечать на сообщения
Вы не можете редактировать свои сообщения
Вы не можете удалять свои сообщения
Вы не можете голосовать в опросах
Вы не можете прикреплять файлы к сообщениям
Вы не можете скачивать файлы