Джаз, который никто не просил / Jazz that nobody asked for (Руне Фискер, Эсбен Фискер / Rune Fisker, Esben Fisker) [2013, Дания, авторская анимация, чёрный юмор, WEBRip-AVC]


 

[Цитировать]

Джаз, который никто не просил / Jazz that nobody asked for
Страна: Дания
Жанр: авторская анимация, чёрный юмор
Год выпуска: 2013
Продолжительность: 00:04:12
Перевод: не требуется
Cубтитры: нет
Режиссеры: Руне Фискер, Эсбен Фискер / Rune Fisker, Esben Fisker
Описание: Похоронив отца, молодой человек наследует его дом, где среди старого хлама обнаруживает большой деревянный ящик, снабжённый тремя надписями: "Это великая разрушительная сила! Обращаться с особой осторожностью", "Внутри этого ящика опасная, но великая энергия" и "Будьте очень осторожны с содержимым". Внутри загадочного ящика оказывается маленькая картонная коробка, а в ней… три весёлых джазмена, которые быстро дают понять, что надписи на ящике не были шуткой!
Качество видео: WEBRip-AVC
Формат видео: MP4
Видео: 2137 kbps, 1280х720 (16x9), 25.000 fps, AVC (High@L3.1)
Аудио: 157 kbps, 48.0 kHz, 2 channels, AAC (LC)

MediaInfo

Общее
Полное имя : Jazz that nobody asked for (2013).mp4
Формат : MPEG-4
Профиль формата : Base Media / Version 2
Идентификатор кодека : mp42
Размер файла : 68,8 Мбайт
Продолжительность : 4 м. 12 с.
Режим общего битрейта : Переменный
Общий поток : 2290 Кбит/сек
Дата кодирования : UTC 2013-02-13 18:51:37
Дата пометки : UTC 2013-02-13 18:51:37
Видео
Идентификатор : 1
Формат : AVC
Формат/Информация : Advanced Video Codec
Профиль формата : High@L3.1
Параметр CABAC формата : Да
Параметр ReFrames формата : 4 кадра
Идентификатор кодека : avc1
Идентификатор кодека/Информация : Advanced Video Coding
Продолжительность : 4 м. 11 с.
Битрейт : 2137 Кбит/сек
Ширина : 1280 пикселей
Высота : 720 пикселей
Соотношение сторон : 16:9
Режим частоты кадров : Постоянный
Частота кадров : 25,000 кадров/сек
Цветовое пространство : YUV
Субдискретизация насыщенности : 4:2:0
Битовая глубина : 8 бит
Тип развёртки : Прогрессивная
Бит/(Пиксели*Кадры) : 0.093
Размер потока : 63,9 Мбайт (93%)
Библиотека кодирования : x264 core 129 r2245 bc13772
Настройки программы : cabac=1 / ref=3 / deblock=1:0:0 / analyse=0x3:0x113 / me=hex / subme=7 / psy=1 / psy_rd=1.00:0.00 / mixed_ref=1 / me_range=16 / chroma_me=1 / trellis=1 / 8x8dct=1 / cqm=0 / deadzone=21,11 / fast_pskip=1 / chroma_qp_offset=-2 / threads=12 / lookahead_threads=2 / sliced_threads=0 / nr=0 / decimate=1 / interlaced=0 / bluray_compat=0 / constrained_intra=0 / bframes=3 / b_pyramid=2 / b_adapt=1 / b_bias=0 / direct=1 / weightb=1 / open_gop=0 / weightp=2 / keyint=75 / keyint_min=25 / scenecut=40 / intra_refresh=0 / rc_lookahead=40 / rc=2pass / mbtree=1 / bitrate=2137 / ratetol=1.0 / qcomp=0.60 / qpmin=5 / qpmax=69 / qpstep=4 / cplxblur=20.0 / qblur=0.5 / vbv_maxrate=3750 / vbv_bufsize=12500 / nal_hrd=none / ip_ratio=1.40 / aq=1:1.00
Дата кодирования : UTC 2013-02-13 18:51:37
Дата пометки : UTC 2013-02-13 18:51:37
Аудио
Идентификатор : 2
Формат : AAC
Формат/Информация : Advanced Audio Codec
Профиль формата : LC
Идентификатор кодека : 40
Продолжительность : 4 м. 12 с.
Продолжительность оригинала : 4 м. 12 с.
Вид битрейта : Переменный
Битрейт : 157 Кбит/сек
Каналы : 2 канала
Расположение каналов : Front: L R
Частота : 48,0 КГц
Метод сжатия : С потерями
Задержка видео : 37 мс.
Размер потока : 4,73 Мбайт (7%)
Размер потока оригинала : 4,73 Мбайт (7%)
Дата кодирования : UTC 2013-02-13 18:51:37
Дата пометки : UTC 2013-02-13 18:51:37

Скриншот c названием фильма

Скриншоты




Показать сообщения:    

Текущее время: 09-Дек 12:41

Часовой пояс: UTC + 3


Вы не можете начинать темы
Вы не можете отвечать на сообщения
Вы не можете редактировать свои сообщения
Вы не можете удалять свои сообщения
Вы не можете голосовать в опросах
Вы не можете прикреплять файлы к сообщениям
Вы не можете скачивать файлы