21 год за 7 минут / 21 years in 7 minutes (Кэролайн Торрес / Caroline Torres) [2012, США, авторская анимация, WEBRip-AVC]


 

[Цитировать]

21 год за 7 минут / 21 years in 7 minutes
Страна: США
Жанр: авторская анимация
Год выпуска: 2012
Продолжительность: 00:07:00
Перевод: Не требуется
Cубтитры: нет
Режиссер: Кэролайн Торрес / Caroline Torres
Описание: Фильм студентки Род-Айлендского колледжа искусств.
Ироничный, лаконичный и обаятельный рассказ о своей жизни.
Качество видео: WEBRip-AVC
Формат видео: MP4
Видео: 1258 kbps, 1280х720 (16:9), 24.000 fps, AVC (High@L3.1)
Аудио: 158 kbps, 44.1 kHz, 2 channels, AAC (LC)

MediaInfo

Общее
Полное имя : 21 years in 7 minutes.mp4
Формат : MPEG-4
Профиль формата : Base Media
Идентификатор кодека : isom
Размер файла : 71,0 Мбайт
Продолжительность : 7 м. 0 с.
Режим общего битрейта : Переменный
Общий поток : 1418 Кбит/сек
Дата кодирования : UTC 2012-05-30 15:51:58
Дата пометки : UTC 2012-05-31 15:52:00
Видео
Идентификатор : 1
Формат : AVC
Формат/Информация : Advanced Video Codec
Профиль формата : High@L3.1
Параметр CABAC формата : Да
Параметр ReFrames формата : 4 кадра
Идентификатор кодека : avc1
Идентификатор кодека/Информация : Advanced Video Coding
Продолжительность : 7 м. 0 с.
Битрейт : 1258 Кбит/сек
Максимальный битрейт : 7670 Кбит/сек
Ширина : 1280 пикселей
Высота : 720 пикселей
Соотношение сторон : 16:9
Режим частоты кадров : Постоянный
Частота кадров : 24,000 кадра/сек
Цветовое пространство : YUV
Субдискретизация насыщенности : 4:2:0
Битовая глубина : 8 бит
Тип развёртки : Прогрессивная
Бит/(Пиксели*Кадры) : 0.057
Размер потока : 63,0 Мбайт (89%)
Библиотека кодирования : Vimeo Encoder
Дата кодирования : UTC 2012-05-30 15:51:58
Дата пометки : UTC 2012-05-30 15:51:59
Аудио
Идентификатор : 2
Формат : AAC
Формат/Информация : Advanced Audio Codec
Профиль формата : LC
Идентификатор кодека : 40
Продолжительность : 7 м. 0 с.
Вид битрейта : Переменный
Битрейт : 158 Кбит/сек
Максимальный битрейт : 227 Кбит/сек
Каналы : 2 канала
Расположение каналов : Front: L R
Частота : 44,1 КГц
Метод сжатия : С потерями
Размер потока : 7,89 Мбайт (11%)
Дата кодирования : UTC 2012-05-30 15:51:59
Дата пометки : UTC 2012-05-30 15:51:59

Скриншот c названием фильма

Скриншоты




Показать сообщения:    

Текущее время: 08-Дек 10:54

Часовой пояс: UTC + 3


Вы не можете начинать темы
Вы не можете отвечать на сообщения
Вы не можете редактировать свои сообщения
Вы не можете удалять свои сообщения
Вы не можете голосовать в опросах
Вы не можете прикреплять файлы к сообщениям
Вы не можете скачивать файлы