Радость любви / Blaho lásky (Иржи Брдечка / Jiří Brdečka) [1966, Чехословакия, Рисованный, TVRip] + Sub Rus + Original Cze


 

[Цитировать]

Радость любви / Blaho lásky
-Страна: Чехословакия
Жанр: Рисованный
Год выпуска: 1966
Продолжительность: 00:07:25
Перевод: Субтитры
Cубтитры: русские
Оригинальная аудиодорожка: чешский
Режиссер: Иржи Брдечка / Jiří Brdečka, под руководством Иржи Трнки / Jiřího Trnky
В ролях: часы, карандаш
Описание: Мультипликационный образ понимания
восприятия любви и времени.-Сэмпл: http://multi-up.com/914423
Качество видео: TVRip
Формат видео: AVI
Видео: 720x544 (1.32:1), 25 fps, XviD build 64 ~1183 kbps avg, 0.12 bit/pixel
Аудио: 48 kHz, MPEG Layer 3, 2 ch, ~128.00 kbps avg
Формат субтитров: softsub (SRT)

MediaInfo

General
Complete name : C:\Blaho lasky (1966, TVRip).avi
Format : AVI
Format/Info : Audio Video Interleave
File size : 70.0 MiB
Duration : 7mn 25s
Overall bit rate : 1 319 Kbps
Writing application : VirtualDubMod 1.5.4.1 (build 2178/release)
Writing library : VirtualDubMod build 2178/release
Video
ID : 0
Format : MPEG-4 Visual
Format profile : Advanced Simple@L5
Format settings, BVOP : 1
Format settings, QPel : No
Format settings, GMC : No warppoints
Format settings, Matrix : Custom
Codec ID : XVID
Codec ID/Hint : XviD
Duration : 7mn 25s
Bit rate : 1 183 Kbps
Width : 720 pixels
Height : 544 pixels
Display aspect ratio : 4:3
Frame rate : 25.000 fps
Color space : YUV
Chroma subsampling : 4:2:0
Bit depth : 8 bits
Scan type : Progressive
Compression mode : Lossy
Bits/(Pixel*Frame) : 0.121
Stream size : 62.9 MiB (90%)
Writing library : XviD 64
Audio
ID : 1
Format : MPEG Audio
Format version : Version 1
Format profile : Layer 3
Mode : Joint stereo
Mode extension : MS Stereo
Codec ID : 55
Codec ID/Hint : MP3
Duration : 7mn 25s
Bit rate mode : Constant
Bit rate : 128 Kbps
Channel(s) : 2 channels
Sampling rate : 48.0 KHz
Compression mode : Lossy
Stream size : 6.79 MiB (10%)
Alignment : Aligned on interleaves
Interleave, duration : 80 ms (2.00 video frames)
Interleave, preload duration : 504 ms
Writing library : LAME3.98r
Encoding settings : -m j -V 4 -q 2 -lowpass 17 -b 128

-

Скриншот c названием фильма

Скриншоты с субтитрами

Скриншоты

-



Показать сообщения:    

Текущее время: 24-Янв 12:13

Часовой пояс: UTC + 3


Вы не можете начинать темы
Вы не можете отвечать на сообщения
Вы не можете редактировать свои сообщения
Вы не можете удалять свои сообщения
Вы не можете голосовать в опросах
Вы не можете прикреплять файлы к сообщениям
Вы не можете скачивать файлы