Свадьба в Коралловом море / Svatba v korálovém moři / Wedding in the Coral Sea (Хорст фон Мёллендорф / Horst von Möllendorff, Иржи Брдечка / Jiří Brdečka, Станислав Латал / Stanislav Látal, ...) 1945, TVRip


 

[Цитировать]

Свадьба в Коралловом море / Svatba v korálovém moři
Страна: Чехословакия, Германия
Жанр: Рисованный
Год выпуска: 1945
Продолжительность: 00:10:14
Перевод: Не требуется
Cубтитры: нет
Оригинальная аудиодорожка: чешский
Режиссеры: Хорст фон Мёллендорф / Horst von Möllendorff, Иржи Брдечка / Jiří Brdečka, Ярослав Кандл / Jaroslav Kándl, Эдуард Гофман / Eduard Hofman, Бржетислав Пояр / Břetislav Pojar, Вацлав Бедржих / Václav Bedřich, Станислав Латал / Stanislav Látal, Ярослав Доубрава / Jaroslav Doubrava, Йозеф Клуге / Josef Kluge.
Музыка: Юлий Калаш / Julius Kalaš.
В ролях: рыбки
Описание: Сюжет мультфильма повествует о жизни двух влюблённых рыбок.
Но злой одноглазый осьминог, похищает рыбку-невесту главного героя (также рыбы).
Все рыбы и прочие морские обитатели объединяются против осьминога, чтобы освободить её, и в итоге побеждают.
Доп. информация: Мультфильм относится к сборнику "Мультипликация Третьего рейха"
Антисоветский цветной мультфильм, снятый в 1944 году. Был снят режиссёром Хорстом фон Мёллендорфом в оккупированной Праге на «Прага-фильм» (бывшей студии «Барандов»).
Под образом рыбки подразумевался мир, оккупированный большевиками, который Германия призвана освободить.
Образ осьминога и поведение весьма схожи со стереотипными представлениями о казаках (папаха, красные шаровары, сапоги).
Большую часть мультфильма занимают вполне «мирные» сцены веселья морских обитателей.-Сэмпл: http://multi-up.com/914402
Качество видео: TVRip
Формат видео: AVI
Видео: 640x480 (1.33:1), 25 fps, XviD build 50 ~928 kbps avg, 0.12 bit/pixel
Аудио: 48 kHz, MPEG Layer 3, 2 ch, ~160.00 kbps avg-

MediaInfo

General
Complete name : C:\Svatba v koralovem mori (1945, TVRip).avi
Format : AVI
Format/Info : Audio Video Interleave
File size : 80.5 MiB
Duration : 10mn 14s
Overall bit rate : 1 099 Kbps
Writing application : VirtualDubMod 1.5.4.1 (build 2066/release)
Writing library : VirtualDubMod build 2066/release
Video
ID : 0
Format : xvid
Codec ID : xvid
Duration : 10mn 14s
Bit rate : 929 Kbps
Width : 640 pixels
Height : 480 pixels
Display aspect ratio : 4:3
Frame rate : 25.000 fps
Bits/(Pixel*Frame) : 0.121
Stream size : 68.1 MiB (85%)
Audio
ID : 1
Format : MPEG Audio
Format version : Version 1
Format profile : Layer 3
Mode : Joint stereo
Mode extension : MS Stereo
Codec ID : 55
Codec ID/Hint : MP3
Duration : 10mn 14s
Bit rate mode : Constant
Bit rate : 160 Kbps
Channel(s) : 2 channels
Sampling rate : 48.0 KHz
Compression mode : Lossy
Stream size : 11.7 MiB (15%)
Alignment : Aligned on interleaves
Interleave, duration : 40 ms (1.00 video frame)
Interleave, preload duration : 504 ms

Скриншот c названием фильма

Скриншоты

-



Показать сообщения:    

Текущее время: 03-Дек 22:48

Часовой пояс: UTC + 3


Вы не можете начинать темы
Вы не можете отвечать на сообщения
Вы не можете редактировать свои сообщения
Вы не можете удалять свои сообщения
Вы не можете голосовать в опросах
Вы не можете прикреплять файлы к сообщениям
Вы не можете скачивать файлы