Рассеянный / The imperfectionist (Аза Люкандер, Виктория Китчингмэн / Asa Lucander, Victoria Kitchingman) [2006, Великобритания, авторская анимация, WEB-Rip] original + rus sub


 

[Цитировать]

Рассеянный / The imperfectionist
Страна: Великобритания
Жанр: авторская анимация
Год выпуска: 2006
Продолжительность: 00:02:59
Перевод: субтитры (alex.n42)
Cубтитры: русские
Режиссёры: Аза Люкандер, Виктория Китчингмэн / Asa Lucander, Victoria Kitchingman
Описание: Молодой художник рассеянно рисует картинки, одновременно беседуя по телефону со своей мамой, которая обеспокоена тем, что у него нет девушки. Тем временем рисунки, несущие часть души своего автора, начинают жить своей жизнью…
Качество видео: WEBRip
Формат видео: MP4
Видео: 595 kbps, 640х360 (16:9), 25.000 fps, AVC (High@L3.1)
Аудио: 114 kbps, 44.1 kHz, 2 channels, AAC (LC)
Формат субтитров: softsub (SRT)

MediaInfo

Общее
Полное имя : The imperfectionist (2006).mp4
Формат : MPEG-4
Профиль формата : Base Media
Идентификатор кодека : isom
Размер файла : 15,3 Мбайт
Продолжительность : 2 м. 59 с.
Режим общего битрейта : Переменный
Общий поток : 712 Кбит/сек
Дата кодирования : UTC 2011-11-09 17:28:17
Дата пометки : UTC 2011-11-10 17:28:17
Видео
Идентификатор : 1
Формат : AVC
Формат/Информация : Advanced Video Codec
Профиль формата : High@L3.1
Параметр CABAC формата : Да
Параметр ReFrames формата : 4 кадра
Идентификатор кодека : avc1
Идентификатор кодека/Информация : Advanced Video Coding
Продолжительность : 2 м. 59 с.
Битрейт : 595 Кбит/сек
Максимальный битрейт : 2433 Кбит/сек
Ширина : 640 пикселей
Высота : 360 пикселей
Соотношение сторон : 16:9
Режим частоты кадров : Постоянный
Частота кадров : 25,000 кадров/сек
Цветовое пространство : YUV
Субдискретизация насыщенности : 4:2:0
Битовая глубина : 8 бит
Тип развёртки : Прогрессивная
Бит/(Пиксели*Кадры) : 0.103
Размер потока : 12,7 Мбайт (83%)
Библиотека кодирования : Vimeo Encoder
Дата кодирования : UTC 2011-11-09 17:28:17
Дата пометки : UTC 2011-11-09 17:28:17
Аудио
Идентификатор : 2
Формат : AAC
Формат/Информация : Advanced Audio Codec
Профиль формата : LC
Идентификатор кодека : 40
Продолжительность : 2 м. 59 с.
Вид битрейта : Переменный
Битрейт : 114 Кбит/сек
Максимальный битрейт : 161 Кбит/сек
Каналы : 2 канала
Расположение каналов : Front: L R
Частота : 44,1 КГц
Метод сжатия : С потерями
Размер потока : 2,45 Мбайт (16%)
Дата кодирования : UTC 2011-11-09 17:28:17
Дата пометки : UTC 2011-11-09 17:28:17

Скриншот c названием фильма

Скриншоты

Пример субтитров

1
00:00:01,870 --> 00:00:03,810
РАССЕЯННЫЙ
2
00:00:05,130 --> 00:00:05,570
Алло.
3
00:00:07,010 --> 00:00:07,800
О, привет!
4
00:00:08,110 --> 00:00:11,200
Да, да, да… Ну, ты знаешь, нормально…
5
00:00:12,060 --> 00:00:13,550
Да, диктуй. Пишу…
6
00:00:14,850 --> 00:00:19,500
0773832049… Что это?
7
00:00:21,080 --> 00:00:22,880
Угу. Конечно, я не буду раздражаться…
8
00:00:23,020 --> 00:00:23,960
Кто?
9
00:00:24,400 --> 00:00:28,500
Белла? О, мам! Я ходил в детский сад с ней!
Не могу поверить, что ты сделала это!
10
00:00:31,050 --> 00:00:35,080
Да-да-да, я уверен, что она и есть.
Нет, я просто… Я не хотел бы терять ни минуты.
11
00:00:36,130 --> 00:00:39,340
Затворник - это слишком!
Да, это всего несколько недель…
12
00:00:40,180 --> 00:00:43,150
Двадцать пять? Ничего себе!
Спасибо, что следишь за точными цифрами…



Показать сообщения:    

Текущее время: 11-Дек 13:01

Часовой пояс: UTC + 3


Вы не можете начинать темы
Вы не можете отвечать на сообщения
Вы не можете редактировать свои сообщения
Вы не можете удалять свои сообщения
Вы не можете голосовать в опросах
Вы не можете прикреплять файлы к сообщениям
Вы не можете скачивать файлы