Виола / Viola (Прийт Тендер / Priit Tender) [1999, Эстония, авторская анимация, сюрреализм, DVDRip]


 

[Цитировать]

Виола / Viola
Страна: Эстония
Жанр: авторская анимация, сюрреализм
Год выпуска: 1999
Продолжительность: 00:11:18
Перевод: Не требуется
Cубтитры: нет
Режиссёр: Прийт Тендер / Priit Tender
Описание: На небольшом острове стоит полуразрушенный Колизей, где мрачный артист, тело которого состоит из букв M, A, N, даёт представления, распиливая свою жену танцовщицу Виолу перед искусственными зрителями, которых сам накануне изготовил...
Доп. информация: Гран-при на фестивале "Animerte dager" во Фредрикстаде (1999)
Приз жюри на фестивале анимации в Хиросиме (2000)
Качество видео: DVDRip
Формат видео: AVI
Видео: 2385 kbps, 704х528 (4:3), 25.000 fps, MPEG-4 (XviD)
Аудио: 224 kbps, 48.0 kHz, 2 channels, MPEG Audio (MP3)

MediaInfo

Общее
Полное имя : Viola (1999).avi
Формат : AVI
Формат/Информация : Audio Video Interleave
Размер файла : 212 Мбайт
Продолжительность : 11 м.
Общий поток : 2622 Кбит/сек
Программа кодирования : TMPGEnc Video Mastering Works 5 Version. 5.0.5.32
Библиотека кодирования : TMPGEnc Video Mastering Works 5 Version. 5.0.5.32
Видео
Идентификатор : 0
Формат : MPEG-4 Visual
Профиль формата : Advanced Simple@L5
Параметр BVOP формата : 2
Параметр QPel формата : Нет
Параметр GMC формата : Без точки перехода
Параметр матрицы формата : Default (MPEG)
Режим смешивания : Сжатый битовый поток
Идентификатор кодека : XVID
Идентификатор кодека/Подсказка : XviD
Продолжительность : 11 м.
Битрейт : 2385 Кбит/сек
Ширина : 704 пикселя
Высота : 528 пикселей
Соотношение сторон : 4:3
Частота кадров : 25,000 кадров/сек
Цветовое пространство : YUV
Субдискретизация насыщенности : 4:2:0
Битовая глубина : 8 бит
Тип развёртки : Прогрессивная
Метод сжатия : С потерями
Бит/(Пиксели*Кадры) : 0.257
Размер потока : 193 Мбайт (91%)
Библиотека кодирования : XviD 64
Аудио
Идентификатор : 1
Формат : MPEG Audio
Версия формата : Version 1
Профиль формата : Layer 3
Режим : Joint stereo
Расширение режима : MS Stereo
Идентификатор кодека : 55
Идентификатор кодека/Подсказка : MP3
Продолжительность : 11 м.
Вид битрейта : Постоянный
Битрейт : 224 Кбит/сек
Каналы : 2 канала
Частота : 48,0 КГц
Метод сжатия : С потерями
Размер потока : 18,1 Мбайт (9%)
Выравнивание : Соединение по промежуткам
Продолжительность промежутка : 40 мс. (1,00 видеокадр)
Время предзагрузки промежутка : 408 мс.

Скриншот c названием фильма

Скриншоты




Показать сообщения:    

Текущее время: 11-Дек 16:50

Часовой пояс: UTC + 3


Вы не можете начинать темы
Вы не можете отвечать на сообщения
Вы не можете редактировать свои сообщения
Вы не можете удалять свои сообщения
Вы не можете голосовать в опросах
Вы не можете прикреплять файлы к сообщениям
Вы не можете скачивать файлы