Похищение Персефоны / The waif of Persephone (Ник Кросс / Nick Cross) [2006, Канада, авторская анимация, чёрный юмор, DVDRip] original + rus sub


 

[Цитировать]

Похищение Персефоны / The waif of Persephone
Страна: Канада
Жанр: авторская анимация, чёрный юмор
Год выпуска: 2006
Продолжительность: 00:12:17
Перевод: субтитры (alex.n42)
Cубтитры: русские
Режиссёр: Ник Кросс / Nick Cross
Описание: Черти похитили богиню весны Персефону, и теперь миру угрожает вечная зима. Три лесных эльфа обратились за помощью к американскому президенту. Мудрый президент готов вести переговоры с Сатаной об освобождении Персефоны. Но какой будет цена компромисса?
Доп. информация: Сюжет основан на диснеевском музыкальном мультфильме «Богиня весны» / «The Goddess of Spring» 1934 года. Мультипликатор-одиночка Ник Кросс в своей интерпретации, шуточно стилизованной под голливудское кино 30-тых годов, окарикатурил образы классической анимации и внёс элемент политической сатиры, что вообще характерно для его творчества.
Другие фильмы Ника Кросса:
The Pig Farmer (2010) - http://teatrix.ru/viewtopic.php?t=5211
Качество видео: DVDRip
Формат видео: AVI
Видео: 728 kbps, 640х424 (4:3), 24.000 fps, MPEG-4 (XviD)
Аудио: 112 kbps, 44.1 kHz, 2 channels, MPEG Audio (MP3)
Формат субтитров: softsub (SRT)

MediaInfo

Общее
Полное имя : The Waif of Persephone (2006).avi
Формат : AVI
Формат/Информация : Audio Video Interleave
Размер файла : 74,9 Мбайт
Продолжительность : 12 м.
Общий поток : 852 Кбит/сек
Программа кодирования : Lavf54.59.107
Видео
Идентификатор : 0
Формат : MPEG-4 Visual
Профиль формата : Simple@L1
Параметр BVOP формата : Нет
Параметр QPel формата : Нет
Параметр GMC формата : Без точки перехода
Параметр матрицы формата : Default (H.263)
Идентификатор кодека : XVID
Идентификатор кодека/Подсказка : XviD
Продолжительность : 12 м.
Битрейт : 728 Кбит/сек
Ширина : 640 пикселей
Высота : 424 пикселя
Соотношение сторон : 3:2
Частота кадров : 24,000 кадра/сек
Цветовое пространство : YUV
Субдискретизация насыщенности : 4:2:0
Битовая глубина : 8 бит
Тип развёртки : Прогрессивная
Метод сжатия : С потерями
Бит/(Пиксели*Кадры) : 0.112
Размер потока : 64,0 Мбайт (85%)
Библиотека кодирования : Lavc54.86.100
Аудио
Идентификатор : 1
Формат : MPEG Audio
Версия формата : Version 1
Профиль формата : Layer 3
Режим : Joint stereo
Расширение режима : MS Stereo
Идентификатор кодека : 55
Идентификатор кодека/Подсказка : MP3
Продолжительность : 12 м.
Вид битрейта : Постоянный
Битрейт : 112 Кбит/сек
Каналы : 2 канала
Частота : 44,1 КГц
Метод сжатия : С потерями
Размер потока : 9,84 Мбайт (13%)
Выравнивание : Соединение по промежуткам
Продолжительность промежутка : 26 мс. (0,63 видеокадр)
Время предзагрузки промежутка : 78 мс.
Библиотека кодирования : LAME3.99.5

Скриншот c названием фильма

Скриншоты

Пример субтитров

1
00:00:16,490 --> 00:00:21,970
ПОХИЩЕНИЕ ПЕРСЕФОНЫ
2
00:00:25,990 --> 00:00:27,890
1. Время весны
3
00:00:45,150 --> 00:00:48,230
Первый день весны
хранители леса встречают работой.
4
00:02:22,240 --> 00:02:25,000
2. Похищение
5
00:03:29,070 --> 00:03:31,170
3. Отчаяние
6
00:03:52,140 --> 00:03:54,060
"Идея"
7
00:04:06,300 --> 00:04:08,060
4. Прошение
8
00:05:46,200 --> 00:05:48,080
5. Спуск
9
00:07:05,210 --> 00:07:07,040
6. Переговоры
10
00:07:16,050 --> 00:07:19,180
Президент хочет
договориться о её освобождении.



Показать сообщения:    

Текущее время: 24-Янв 12:14

Часовой пояс: UTC + 3


Вы не можете начинать темы
Вы не можете отвечать на сообщения
Вы не можете редактировать свои сообщения
Вы не можете удалять свои сообщения
Вы не можете голосовать в опросах
Вы не можете прикреплять файлы к сообщениям
Вы не можете скачивать файлы