Чешская анимация / Czech Animation short works Vol. 1-2 (Гермина Тырлова / Hermina Tyrlova) [1956-1966, Чехословакия, Анимация, Комбинированный фильм, 2 DVD5] + Original Cze


 

[Цитировать]

-Анимация Гермины Тырловой - выпуск 1 / Hermina Tyrlova Film Works Vol. 1- Страна: Чехословакия
Жанр: Анимация, комбинированный фильм.
Год выпуска: 1958-1966
Продолжительность: 01:33:07
Перевод: Отсутствует
Cубтитры: японские
Оригинальная аудиодорожка: чешский
Режиссер: Гермина Тырлова / Hermina Tyrlova
Список мультфильмов:
1. "Dvě klubička" – Два клубочка (1962).
2. "Vlněná pohádka" – Шерстяная сказка (1964).
3. "Sněhulák" - Снеговик (1966).
4. "Pasáček vepřů" – Свинопас (1958).
5. "Zvědavě psaníčko" – Любопытное письмо (1961).
6. "Kulička" – Шарик (1963).
7. "Ztracená panenka" – Потерянная куколка (1959).
Описание: Коллекция из 14 мультфильмов Гермины Тырловой (1900–1993) мастера чешской анимации, художницы , заслуженной артистки ЧССР, работавшей в кино с середины 20-х годов. В 1943 г. Гермина Тырлова дебютировала мультипликационным кукольным кинофильмом "Ферда-муравей" . Кинокартина "Колыбельная" (1948) завоевала широкую популярность среди зрителей. Чешские народные сказки легли в основу фильмов: "Сказка о драконе" (1953), "Мячик Фличек" (1956), "Потерянная куколка" (1959). В 60-х гг. совместно с Й. Пинкавой сняла комбинированные кукольно-игровые фильмы для детей - "Любопытное письмо" (1961), "Узелок на платке" (1962), "Игра" (1963), "Девочка или мальчик" (1966). В начале 70-х гг. сняла многосерийный телевизионный фильм "Приключения кота Голубоглазки". Государственная премия ЧССР (1952).
Доп. информация: http://www.csfd.cz/tvurce/5788-hermina-tyrlova/
Меню: статичное, неозвученное.
Сэмпл: http://yadi.sk/d/8sqdOkDL9m9w9
Качество видео: DVD5
Формат видео: DVD Video
Видео: MPEG Video, NTSC 4:3 (720x480) VBR, 29,970 кадров/сек
Аудио: AC3, 2/0ch, 256 Кбит/сек, 48,0 КГц

MediaInfo

Общее
Полное имя : C:\Торренты\Hermina Tyrlova Film Works Vol. 1-2\Hermina Tyrlova Film Works Vol. 1\VIDEO_TS\VIDEO_TS.BUP
Формат : DVD Video
Профиль формата : Menu
Размер файла : 12,0 Кбайт
Режим общего битрейта : Переменный
Видео
Идентификатор : 224 (0xE0)
Формат : MPEG Video
Версия формата : Version 2
Вид битрейта : Переменный
Ширина : 720 пикселей
Высота : 480 пикселей
Соотношение сторон : 4:3
Частота кадров : 29,970 кадров/сек
Стандарт вещания : NTSC
Метод сжатия : С потерями
Аудио
Формат : AC-3
Формат/Информация : Audio Coding 3
Каналы : 2 канала
Частота : 48,0 КГц
Метод сжатия : С потерями
Текст
Формат : RLE
Формат/Информация : Run-length encoding
Битовая глубина : 2 бит
Общее
Полное имя : C:\Торренты\Hermina Tyrlova Film Works Vol. 1-2\Hermina Tyrlova Film Works Vol. 1\VIDEO_TS\VIDEO_TS.IFO
Формат : DVD Video
Профиль формата : Menu
Размер файла : 12,0 Кбайт
Режим общего битрейта : Переменный
Видео
Идентификатор : 224 (0xE0)
Формат : MPEG Video
Версия формата : Version 2
Вид битрейта : Переменный
Ширина : 720 пикселей
Высота : 480 пикселей
Соотношение сторон : 4:3
Частота кадров : 29,970 кадров/сек
Стандарт вещания : NTSC
Метод сжатия : С потерями
Аудио
Формат : AC-3
Формат/Информация : Audio Coding 3
Каналы : 2 канала
Частота : 48,0 КГц
Метод сжатия : С потерями
Текст
Формат : RLE
Формат/Информация : Run-length encoding
Битовая глубина : 2 бит
Общее
Полное имя : C:\Торренты\Hermina Tyrlova Film Works Vol. 1-2\Hermina Tyrlova Film Works Vol. 1\VIDEO_TS\VIDEO_TS.VOB
Формат : MPEG-PS
Размер файла : 4,89 Мбайт
Продолжительность : 6 с. 840 мс.
Режим общего битрейта : Переменный
Общий поток : 5995 Кбит/сек
Видео
Идентификатор : 224 (0xE0)
Формат : MPEG Video
Версия формата : Version 2
Профиль формата : Simple@Main
Параметр BVOP формата : Нет
Параметр матрицы формата : Выборочная
Параметр GOP формата : Variable
Продолжительность : 6 с. 840 мс.
Вид битрейта : Переменный
Битрейт : 5620 Кбит/сек
Максимальный битрейт : 8000 Кбит/сек
Ширина : 720 пикселей
Высота : 480 пикселей
Соотношение сторон : 4:3
Частота кадров : 29,970 кадров/сек
Стандарт вещания : NTSC
Цветовое пространство : YUV
Субдискретизация насыщенности : 4:2:0
Битовая глубина : 8 бит
Тип развёртки : Чересстрочная
Порядок развёртки : Верхнее поле первое
Метод сжатия : С потерями
Бит/(Пиксели*Кадры) : 0.543
Временной код первого кадра : 00:59:01:00
Оригинал временного кода : Group of pictures header
Размер потока : 4,58 Мбайт (94%)
Аудио
Идентификатор : 189 (0xBD)-128 (0x80)
Формат : AC-3
Формат/Информация : Audio Coding 3
Расширение режима : CM (complete main)
Параметр Endianness формата : Big
Режим смешивания : DVD-Video
Продолжительность : 6 с. 816 мс.
Вид битрейта : Постоянный
Битрейт : 256 Кбит/сек
Каналы : 2 канала
Расположение каналов : Front: L R
Частота : 48,0 КГц
Битовая глубина : 16 бит
Метод сжатия : С потерями
Размер потока : 213 Кбайт (4%)

Отчет DVDInfo

Title: Acer
Size: 4.31 Gb ( 4 516 666 KBytes ) - DVD-5
Enabled regions: 1, 2, 3, 4, 5, 6, 7, 8
VTS_01 :
Play Length: 01:31:16+00:01:44
Video: NTSC 4:3 (720x480) VBR
Audio:
Not specified (Dolby AC3, 2 ch)
Subtitles:
Japanese
Chinese
Chinese
Menu Video:
NTSC 4:3 (720x480) VBR
Menu Audio:
Not specified (Dolby AC3, 2 ch)
Menu Subtitles:
Not specified
Menu Japanese Language Unit :
Root Menu

Скриншоты

Скриншоты меню

-Анимация Гермины Тырловой - выпуск 2 / Hermina Tyrlova Film Works Vol. 2- Страна: Чехословакия
Жанр: Анимация
Год выпуска: 1956-1965
Продолжительность: 01:29:54
Перевод: Отсутствует
Cубтитры: японские
Оригинальная аудиодорожка: чешский
Режиссер: Гермина Тырлова / Hermina Tyrlova
Список мультфильмов:
1."Míček Flíček" - Мячик Фличек (1956).
2."Kalamajka" – Каламайка (1957). Каламайка – чешский народный танец.
3."Všem nelze vyhovět" – Всем не угодишь (1958).
4."Uzel na kapesníku" - Узелок на платке (1958).
5."Vláček kolejáček" – Маленький поезд Колеячек (1959).
6."Den odplaty" – День расплаты (1960).
7."Modrá zástérka" - Синий передничек (1965).
Сэмпл: http://yadi.sk/d/BmC24nym9mLQm
Качество видео: DVD5
Формат видео: DVD Video
Видео: MPEG Video, NTSC 4:3 (720x480) VBR, 29,970 кадров/сек
Аудио: AC3, 2/0ch, 256 Кбит/сек, 48,0 КГц

MediaInfo

Общее
Полное имя : C:\Торренты\Hermina Tyrlova Film Works Vol. 1-2\Hermina Tyrlova Film Works Vol. 2\VIDEO_TS\VIDEO_TS.BUP
Формат : DVD Video
Профиль формата : Menu
Размер файла : 12,0 Кбайт
Режим общего битрейта : Переменный
Видео
Идентификатор : 224 (0xE0)
Формат : MPEG Video
Версия формата : Version 2
Вид битрейта : Переменный
Ширина : 720 пикселей
Высота : 480 пикселей
Соотношение сторон : 4:3
Частота кадров : 29,970 кадров/сек
Стандарт вещания : NTSC
Метод сжатия : С потерями
Аудио
Формат : AC-3
Формат/Информация : Audio Coding 3
Каналы : 2 канала
Частота : 48,0 КГц
Метод сжатия : С потерями
Текст
Формат : RLE
Формат/Информация : Run-length encoding
Битовая глубина : 2 бит
Общее
Полное имя : C:\Торренты\Hermina Tyrlova Film Works Vol. 1-2\Hermina Tyrlova Film Works Vol. 2\VIDEO_TS\VIDEO_TS.IFO
Формат : DVD Video
Профиль формата : Menu
Размер файла : 12,0 Кбайт
Режим общего битрейта : Переменный
Видео
Идентификатор : 224 (0xE0)
Формат : MPEG Video
Версия формата : Version 2
Вид битрейта : Переменный
Ширина : 720 пикселей
Высота : 480 пикселей
Соотношение сторон : 4:3
Частота кадров : 29,970 кадров/сек
Стандарт вещания : NTSC
Метод сжатия : С потерями
Аудио
Формат : AC-3
Формат/Информация : Audio Coding 3
Каналы : 2 канала
Частота : 48,0 КГц
Метод сжатия : С потерями
Текст
Формат : RLE
Формат/Информация : Run-length encoding
Битовая глубина : 2 бит
Общее
Полное имя : C:\Торренты\Hermina Tyrlova Film Works Vol. 1-2\Hermina Tyrlova Film Works Vol. 2\VIDEO_TS\VIDEO_TS.VOB
Формат : MPEG-PS
Размер файла : 4,89 Мбайт
Продолжительность : 6 с. 840 мс.
Режим общего битрейта : Переменный
Общий поток : 5995 Кбит/сек
Видео
Идентификатор : 224 (0xE0)
Формат : MPEG Video
Версия формата : Version 2
Профиль формата : Simple@Main
Параметр BVOP формата : Нет
Параметр матрицы формата : Выборочная
Параметр GOP формата : Variable
Продолжительность : 6 с. 840 мс.
Вид битрейта : Переменный
Битрейт : 5620 Кбит/сек
Максимальный битрейт : 8000 Кбит/сек
Ширина : 720 пикселей
Высота : 480 пикселей
Соотношение сторон : 4:3
Частота кадров : 29,970 кадров/сек
Стандарт вещания : NTSC
Цветовое пространство : YUV
Субдискретизация насыщенности : 4:2:0
Битовая глубина : 8 бит
Тип развёртки : Чересстрочная
Порядок развёртки : Верхнее поле первое
Метод сжатия : С потерями
Бит/(Пиксели*Кадры) : 0.543
Временной код первого кадра : 00:59:01:00
Оригинал временного кода : Group of pictures header
Размер потока : 4,58 Мбайт (94%)
Аудио
Идентификатор : 189 (0xBD)-128 (0x80)
Формат : AC-3
Формат/Информация : Audio Coding 3
Расширение режима : CM (complete main)
Параметр Endianness формата : Big
Режим смешивания : DVD-Video
Продолжительность : 6 с. 816 мс.
Вид битрейта : Постоянный
Битрейт : 256 Кбит/сек
Каналы : 2 канала
Расположение каналов : Front: L R
Частота : 48,0 КГц
Битовая глубина : 16 бит
Метод сжатия : С потерями
Размер потока : 213 Кбайт (4%)

Отчет DVDInfo

Title: Acer
Size: 4.29 Gb ( 4 493 450 KBytes ) - DVD-5
Enabled regions: 1, 2, 3, 4, 5, 6, 7, 8
VTS_01 :
Play Length: 01:28:04+00:01:44
Video: NTSC 4:3 (720x480) VBR
Audio:
Japanese (Dolby AC3, 2 ch)
Subtitles:
Japanese
Chinese
Chinese
Menu Video:
NTSC 4:3 (720x480) VBR
Menu Audio:
Not specified (Dolby AC3, 2 ch)
Menu Subtitles:
Not specified
Menu Japanese Language Unit :
Root Menu

Скриншоты

Скриншоты меню

ГЕРМИНА ТЫРЛОВА (1900–1993 гг.) - чехословацкий режиссёр-мультипликатор, художница, начавшая работать в кино с середины 20-х годов. Ей принадлежит одно из главных мест в ряду зачинателей чехословацкой мультипликации. Мир детства, заботы и радости материнства, детская фантазия и мировосприятие — вот круг тем и интересов, наиболее близких ей в киноискусстве. Мультипликация, «оживающая» на экране кукла оказались наиболее подходящими для этого средствами выражения. На студии в Готвальдове, с которой она связала свою судьбу, были созданы все ее фильмы, здесь выработался и откристаллизовался ее собственный неповторимо-оригинальный стиль.
Первые работы Тырловой, комбинировавшие актеров и кукольную анимацию, сразу привлекли внимание своим лиризмом и волшебной, сказочной атмосферой. Однако истинную славу ей принесли ленты 1960-х годов, когда она создала свой уникальный стиль «фильмов из подручных материалов». Она начала с использования шерсти и войлока, а в 1970-х работала с полурельефными куклами, сделанными из кружев, дерева и стекла. За свой фильм «Восстание игрушек» в 1946 году Гермина Тырлова была удостоена призов на международных фестивалях в Каннах, Венеции и Брюсселе.
Лиризм пронизывает творчество Гермины Тырловой. Ее фильмы — это тончайший, светящийся в своей прозрачности и чистоте мир детских чувств, представлений о добре, о дружбе, взаимопомощи, счастье и радости самоотверженного поступка во имя красоты и правды, величия простых и вечных истин.



Показать сообщения:    

Текущее время: 10-Дек 17:43

Часовой пояс: UTC + 3


Вы не можете начинать темы
Вы не можете отвечать на сообщения
Вы не можете редактировать свои сообщения
Вы не можете удалять свои сообщения
Вы не можете голосовать в опросах
Вы не можете прикреплять файлы к сообщениям
Вы не можете скачивать файлы