Я вас понял / Je vous ai compris (Франк Шиш / Franck Chiche) [2012, Франция, историческая драма, анимация, DVB] Original (Fre) + Sub (rus)


 

[Цитировать]

Я вас понял
Je vous ai compris- Страна: Франция
Жанр: историческая драма, анимация
Год выпуска: 2012
Продолжительность: 01:24:42
Перевод: Субтитры (перевод М. Кузиной, Éclair Group)
Cубтитры: русские
Оригинальная аудиодорожка: французский
Режиссер: Франк Шиш / Franck ChicheВ ролях: Карилл Эльгриши / Karyll Elgrichi (Malika), Франсуа Деблок / François Deblock (Jacquot), Дамьен Заноли / Damien Zanoli (Thomas), Лора Шиш / Laura Chiche (Sarah), Гвенаэль Пржидатек / Gwenaël Przydatek (Collignon)
Описание: Музыка Рашида Таха / Rachid Taha.-"Я вас понял" – это ключевая фраза речи генерала де Голля перед беснующейся толпой французских "ультра" в городе Алжире, который де Голль посетил в первые дни своего прихода к власти 4 июня 1958 года. Высказывания де Голля нередко отличались двусмысленностью и были столь хитроумны, что сбивали с толку тех, кого он хотел обвести вокруг пальца. Ревущая толпа, готовая растерзать любого, кто проявит хотя бы малейшее несогласие с ее лозунгами "Алжир французский!" и "Спасите Алжир!", ожидала немедленного ответа от генерала, представшего перед ней на балконе одного из зданий. И де Голль сказал: "Я вас понял". Толпа буквально завыла от восторга, услышав в этих словах то, чего в них на деле вовсе не было.-Алжир, апрель 1961 года. История Алжирской войны через судьбы четырех молодых людей: новобранца Жако, который всего полгода как рекрут, но уже прекрасно понимает, что война – отнюдь не детская игра; Тома, который стыдится своей хромоты и мечтает стать десантником; Малики, борющейся за независимость своей страны; Сары, пытающейся побороть внутренних демонов, зовущих ее совершить теракт в кафе Алжира…
Доп. информация: Запись со спутника (телеканал TV5MONDE).
Награды: приз Festival de la Fiction TV de La Rochelle 2012 художнику-постановщику; приз Фонда Бомарше Festival du Cinéma Méditéranéen de Bruxelles (Cinémed) 2012; приз SACD (Société des Auteurs et Compositeurs Dramatiques) 2013 за лучшее интерактивное издание; приз жюри Web Program Festival 2013 за поиск новых средств выражения в анимации в секции интерактивных программ.
Информация: http://www.imdb.com/title/tt2032470/
Сэмпл: http://multi-up.com/905087
Качество видео: DVB
Формат видео: MPEG-PS
Видео: MPEG Video 2, 720x576@1024x576 (16:9), 25 fps, ~2825 kbps avg, 0.272 bit/pixel
Аудио: Французский (48 kHz, MPEG Audio 2, 2 ch, ~192.00 kbps avg)
Формат субтитров: hardsub (неотключаемые)

MediaInfo

Полное имя : H:\My Torrents\[apreder]Je_vous_ai_compris(2012)DVB.mpgФормат : MPEG-PSРазмер файла : 1,82 ГбайтПродолжительность : 1 ч. 24 м.Режим общего битрейта : ПеременныйОбщий поток : 3078 Кбит/сек
ВидеоИдентификатор : 224 (0xE0)Формат : MPEG VideoВерсия формата : Version 2Профиль формата : Main@MainПараметр BVOP формата : ДаПараметр матрицы формата : ВыборочнаяПараметр GOP формата : M=3, N=24Продолжительность : 1 ч. 24 м.Вид битрейта : ПеременныйБитрейт : 2825 Кбит/секШирина : 720 пикселейВысота : 576 пикселейСоотношение сторон : 16:9Частота кадров : 25,000 кадров/секСтандарт вещания : PALЦветовое пространство : YUVСубдискретизация насыщенности : 4:2:0Битовая глубина : 8 битТип развёртки : ПрогрессивнаяПорядок развёртки : Верхнее поле первоеМетод сжатия : С потерямиБит/(Пиксели*Кадры) : 0.272TimeCode_FirstFrame : 00:00:00:00TimeCode_Source : Group of pictures headerРазмер потока : 1,67 Гбайт (92%)
АудиоИдентификатор : 192 (0xC0)Формат : MPEG AudioВерсия формата : Version 1Профиль формата : Layer 2Продолжительность : 1 ч. 24 м.Вид битрейта : ПостоянныйБитрейт : 192 Кбит/секКаналы : 2 каналаЧастота : 48,0 КГцМетод сжатия : С потерямиРазмер потока : 116 Мбайт (6%)

Скриншот c названием фильма

Скриншоты


Резервные скриншоты


-974/956√



Показать сообщения:    

Текущее время: 07-Дек 23:11

Часовой пояс: UTC + 3


Вы не можете начинать темы
Вы не можете отвечать на сообщения
Вы не можете редактировать свои сообщения
Вы не можете удалять свои сообщения
Вы не можете голосовать в опросах
Вы не можете прикреплять файлы к сообщениям
Вы не можете скачивать файлы