Голос общественности / Den offentlige røst (Лейф Маркуссен / Lejf Marcussen) [1988, Дания, авторская анимация, VHSRip]


 

[Цитировать]

Голос общественности / Den offentlige røst
Страна: Дания
Жанр: авторская анимация
Год выпуска: 1988
Продолжительность: 00:11:01
Перевод: не требуется
Cубтитры: нет
Режиссёр: Лейф Маркуссен / Lejf Marcussen
Описание: Необычный и визуально-изобретательный экскурс в мир классической и современной живописи.
Доп. информация: Кстати, лицо в окне, опирающееся на кисть руки – это сам Лейф Маркуссен.
Качество видео: VHSRip
Формат видео: AVI
Видео: 1447 kbps, 640х480 (4:3), 25.000 fps, MPEG-4 Visual (XviD)
Аудио: 128 kbps, 44.1 kHz, 2 channels, MPEG Audio (MP3)

MediaInfo

Общее
Полное имя : Den Offentlige Rost (1988).avi
Формат : AVI
Формат/Информация : Audio Video Interleave
Размер файла : 125 Мбайт
Продолжительность : 11 м.
Общий поток : 1586 Кбит/сек
Программа кодирования : Lavf54.59.107
Видео
Идентификатор : 0
Формат : MPEG-4 Visual
Профиль формата : Simple@L1
Параметр BVOP формата : Нет
Параметр QPel формата : Нет
Параметр GMC формата : Без точки перехода
Параметр матрицы формата : Default (H.263)
Идентификатор кодека : XVID
Идентификатор кодека/Подсказка : XviD
Продолжительность : 11 м.
Битрейт : 1447 Кбит/сек
Ширина : 640 пикселей
Высота : 480 пикселей
Соотношение сторон : 4:3
Частота кадров : 25,000 кадров/сек
Цветовое пространство : YUV
Субдискретизация насыщенности : 4:2:0
Битовая глубина : 8 бит
Тип развёртки : Прогрессивная
Метод сжатия : С потерями
Бит/(Пиксели*Кадры) : 0.188
Размер потока : 114 Мбайт (91%)
Библиотека кодирования : Lavc54.86.100
Аудио
Идентификатор : 1
Формат : MPEG Audio
Версия формата : Version 1
Профиль формата : Layer 3
Режим : Joint stereo
Расширение режима : MS Stereo
Идентификатор кодека : 55
Идентификатор кодека/Подсказка : MP3
Продолжительность : 11 м.
Вид битрейта : Постоянный
Битрейт : 128 Кбит/сек
Каналы : 2 канала
Частота : 44,1 КГц
Метод сжатия : С потерями
Размер потока : 10,1 Мбайт (8%)
Выравнивание : Соединение по промежуткам
Продолжительность промежутка : 26 мс. (0,65 видеокадр)
Время предзагрузки промежутка : 78 мс.
Библиотека кодирования : LAME3.99.5

Скриншот c названием фильма

Скриншоты




Показать сообщения:    

Текущее время: 10-Дек 19:43

Часовой пояс: UTC + 3


Вы не можете начинать темы
Вы не можете отвечать на сообщения
Вы не можете редактировать свои сообщения
Вы не можете удалять свои сообщения
Вы не можете голосовать в опросах
Вы не можете прикреплять файлы к сообщениям
Вы не можете скачивать файлы