Автобиография лжеца / A Liar's Autobiography: The Untrue Story of Monty Python's Graham Chapman (Билл Джонс / Bill Jones, Джефф Симпсон / Jeff Simpson, Бен Тимлетт / Ben Timlett) [2012, Великобритания, комедия, анимация, гей-тема, DVB] DVO


 

[Цитировать]

Автобиография лжеца
A Liar's Autobiography: The Untrue Story of Monty Python's Graham Chapman- Страна: Великобритания
Жанр: комедия, экранизация, анимация, гей-тема
Год выпуска: 2012
Продолжительность: 01:21:17
Перевод: Профессиональный (двухголосый закадровый) НТВ+
Cубтитры: нет
Оригинальная аудиодорожка: нетРежиссер: Билл Джонс / Bill Jones, Джефф Симпсон / Jeff Simpson, Бен Тимлетт / Ben Timlett
В ролях: Грэм Чепмен / Graham Chapman, Джон Клиз / John Cleese, Терри Гиллиам / Terry Gilliam, Терри Джонс / Terry Jones, Майкл Пейлин / Michael Palin, Кэмерон Диас / Cameron Diaz, Кэрол Кливленд / Carol Cleveland, Стивен Фрай / Stephen Fry, Том Холландер / Tom Hollander
Описание: А теперь нечто совсем иное! Вашему вниманию предлагается "Автобиография лжеца: неправдивая история Грэма Чепмена, одного из "Монти Пайтона" - экранизация автобиографии Грэма Чепмена "A Liar's Autobiography, Volume VI" (1980), написанной в соавторстве с David Sherlock, Alex Martin, Douglas Adams, David A. Yallop. Se non è vero, è ben trovato.
Четверо из пяти ныне здравствующих участников коллектива (Терри Джонс, Джон Клиз, Майкл Пейлин и Терри Гиллиам) озвучили своеобразную автобиографию Чапмена времен основания "Монти Пайтона", разбитую на традиционно остроумные скетчи, каждый из которых выполнен в особой анимационной технике. (анонс канала "Премьера")-Грэм Артур Чепмен (1941-1989), актёр, сценарист, писатель и врач, был, наверное, самым безумным и весёлым из всех шестерых членов культовой комик-труппы. Он был самим духом "Монти Пайтона", воплощая в себе всё то, чем они больше всего гордились. Его безграничное воображение и удивительное чувство внутренней свободы выражались не только в творчестве, но и в жизни. О его сумасбродных выходках ходили легенды. Как-то раз Пайтонам пришло письмо от одной зрительницы. Она писала, что ходят слухи, будто один из них является мужеложцем, а таких в Библии рекомендуется забивать камнями. Отсмеявшись, ребята поручили Айдлу составить ответ, в котором он написал встревоженной мэм буквально следующее: "Мы выяснили, кто это был, и застрелили его".
"Им" был Чепмен. И, разумеется, они были в курсе задолго до того, как в середине 70-х он "вылез из шкафа" (публично признался в своей гомосексуальности) на одном ток-шоу. После этого Чепмен уже открыто высказывался за защиту прав геев и оказывал серьёзную поддержку ЛБГТ-сообществу. Партнёра, с которым Грэм прожил полжизни и усыновил ребёнка из неблагополучной семьи, зовут Дэвид Шерлок. Грэм встретил Дэвида на Ибице в 1966 и спустя 23 года умирал у него на руках. Грэм Чепмен умер от рака горла 4 октября 1989 года. Голос Грэма Чепмена был взят с записей 1986 года, которые он сделал за 3 года до своей смерти. (использованы материалы статьи "Это бывший Чепмен!" с BBC FREAKS)-Доп. информация: На территории РФ возрастное ограничение 18+. Запись со спутника (телеканал "Премьера").
Номинация на приз Зрительских симпатий Toronto International Film Festival 2012.
Информация: http://www.imdb.com/title/tt1979172
Сэмпл: http://multi-up.com/893287
Качество видео: DVB
Формат видео: MPEG-PS
Видео: MPEG Video 2, 720x576@1024x576 (16:9), 25 fps, ~1931 kbps avg, 0.186 bit/pixel
Аудио: 48 kHz, MPEG Audio 2, 2 ch, ~192.00 kbps avg

MediaInfo

Полное имя : H:\My Torrents\[apreder]A_Liar's_Autobiography(2012)DVB.mpgФормат : MPEG-PSРазмер файла : 1,23 ГбайтПродолжительность : 1 ч. 21 м.Режим общего битрейта : ПеременныйОбщий поток : 2166 Кбит/сек
ВидеоИдентификатор : 224 (0xE0)Формат : MPEG VideoВерсия формата : Version 2Профиль формата : Main@MainПараметр BVOP формата : ДаПараметр матрицы формата : ВыборочнаяПараметр GOP формата : VariableПродолжительность : 1 ч. 21 м.Вид битрейта : ПеременныйБитрейт : 1931 Кбит/секШирина : 720 пикселейВысота : 576 пикселейСоотношение сторон : 16:9Частота кадров : 25,000 кадров/секСтандарт вещания : PALЦветовое пространство : YUVСубдискретизация насыщенности : 4:2:0Битовая глубина : 8 битТип развёртки : ЧересстрочнаяПорядок развёртки : Верхнее поле первоеМетод сжатия : С потерямиБит/(Пиксели*Кадры) : 0.186TimeCode_FirstFrame : 00:00:00:00TimeCode_Source : Group of pictures headerРазмер потока : 1,10 Гбайт (89%)
АудиоИдентификатор : 192 (0xC0)Формат : MPEG AudioВерсия формата : Version 1Профиль формата : Layer 2Продолжительность : 1 ч. 21 м.Вид битрейта : ПостоянныйБитрейт : 192 Кбит/секКаналы : 2 каналаЧастота : 48,0 КГцМетод сжатия : С потерямиРазмер потока : 112 Мбайт (9%)

Скриншот c названием фильма

Скриншоты


Резервные скриншоты


-913/895√



Показать сообщения:    

Текущее время: 09-Дек 18:32

Часовой пояс: UTC + 3


Вы не можете начинать темы
Вы не можете отвечать на сообщения
Вы не можете редактировать свои сообщения
Вы не можете удалять свои сообщения
Вы не можете голосовать в опросах
Вы не можете прикреплять файлы к сообщениям
Вы не можете скачивать файлы