Песни цирка Джефферсон / Jefferson circus songs (Сьюзан Питт / Suzan Pitt) [1975, США, арт-хаус, сюрреализм, короткий метр, DVDRip]


 

[Цитировать]

Песни цирка Джефферсон / Jefferson circus songs
Страна: США
Жанр: арт-хаус, сюрреализм, короткий метр
Год выпуска: 1975
Продолжительность: 00:15:44
Перевод: не требуется
Cубтитры: нет
Режиссёр: Сьюзан Питт / Suzan Pitt
В ролях: Аланна Фарго / Alanna Fargo, Стив Клемент / Steve Clement, Полин Рэйч / Pauline Raich, Линн Охарин / Lynn Oharin, Дэвид Бэйкер / David Baker, Крис Ольсон / Chris Olson
Описание: Странное, похожее на сон представление, основанное на детских воспоминаниях о посещении цирков-шапито.
Все роли в фильме исполняют дети. Есть элементы анимации.
Доп. информация: Сьюзан Питт более известна своими мультфильмами, тоже довольно необычными. Вот они: http://teatrix.ru/viewtopic.php?t=10529
Качество видео: DVDRip
Формат видео: AVI
Видео: 747 kbps, 720х480 (3:2), 23.976 fps, MPEG-4 Visual (DivX 5)
Аудио: 56 kbps, 24.1 kHz, 2 channels, MPEG Audio (MP3)

MediaInfo

Общее
Полное имя : Jefferson Circus songs (1973).avi
Формат : AVI
Формат/Информация : Audio Video Interleave
Размер файла : 95,2 Мбайт
Продолжительность : 15 м.
Общий поток : 846 Кбит/сек
Библиотека кодирования : This file was made by AviUtl 0.98d.
Видео
Идентификатор : 0
Формат : MPEG-4 Visual
Параметр BVOP формата : Да
Параметр QPel формата : Нет
Параметр GMC формата : Без точки перехода
Параметр матрицы формата : Default (H.263)
Идентификатор кодека : DX50
Идентификатор кодека/Подсказка : DivX 5
Продолжительность : 15 м.
Битрейт : 747 Кбит/сек
Ширина : 720 пикселей
Высота : 480 пикселей
Соотношение сторон : 3:2
Частота кадров : 23,976 кадра/сек
Стандарт вещания : NTSC
Цветовое пространство : YUV
Субдискретизация насыщенности : 4:2:0
Битовая глубина : 8 бит
Тип развёртки : Прогрессивная
Метод сжатия : С потерями
Бит/(Пиксели*Кадры) : 0.090
Размер потока : 84,2 Мбайт (88%)
Библиотека кодирования : DivX 5.0.2 (UTC 2002-05-16)
Аудио
Идентификатор : 1
Формат : MPEG Audio
Версия формата : Version 2
Профиль формата : Layer 3
Режим : Joint stereo
Расширение режима : Intensity Stereo + MS Stereo
Идентификатор кодека : 55
Идентификатор кодека/Подсказка : MP3
Продолжительность : 15 м.
Вид битрейта : Постоянный
Битрейт : 56,0 Кбит/сек
Каналы : 2 канала
Частота : 24,0 КГц
Метод сжатия : С потерями
Размер потока : 6,31 Мбайт (7%)
Выравнивание : Разделение по промежуткам

Скриншот c названием фильма

Скриншоты




Показать сообщения:    

Текущее время: 09-Дек 12:38

Часовой пояс: UTC + 3


Вы не можете начинать темы
Вы не можете отвечать на сообщения
Вы не можете редактировать свои сообщения
Вы не можете удалять свои сообщения
Вы не можете голосовать в опросах
Вы не можете прикреплять файлы к сообщениям
Вы не можете скачивать файлы