Подземка / Sotterranea (Манфредо Манфреди / Manfredo Manfredi) [1973, Италия, короткометражка, мультфильм, TVRip] + Original Eng


 

[Цитировать]

Подземка / Sotterranea
Страна: Италия
Жанр: короткометражка, мультфильм
Год выпуска: 1973
Продолжительность: 0:11:24
Перевод: Не требуется
Cубтитры: нет
Оригинальная аудиодорожка: без диалогов
Режиссер: Манфредо Манфреди / Manfredo Manfredi
Описание: Дремлющий человек, едущий в ночном метро, из-за некой тревожной реальности погружается в мир иллюзий, теней и призраков. Казалось бы незначительны повседневные проблемы, сублимируются в хаос и беспорядок в сознании.
Качество видео: TVRip
Формат видео: MKV
Видео: MPEG4 Video (H264), 640x480, 4:3, 25fps, 1700 Kbps [Vid]
Аудио: MP3, 48000Hz, stereo, 192 Kbps, [Aud]

MediaInfo

General
Unique ID : 64601859839497739274107357106574365267 (0x3099DD9A1C7493FD5D3287A3B3629253)
Complete name : D:\МУЛЬТФИЛЬМЫ\Sotterranea (Manfredo Manfredi - 1973).mkv
Format : Matroska
Format version : Version 2
File size : 155 MiB
Duration : 11mn 23s
Overall bit rate : 1 897 Kbps
Writing application : HandBrake 0.9.4
Video
ID : 1
Format : AVC
Format/Info : Advanced Video Codec
Format profile : Main@L3.0
Format settings, CABAC : Yes
Format settings, ReFrames : 2 frames
Codec ID : V_MPEG4/ISO/AVC
Duration : 11mn 23s
Bit rate : 1 700 Kbps
Width : 640 pixels
Height : 480 pixels
Display aspect ratio : 4:3
Frame rate mode : Constant
Frame rate : 25.000 fps
Color space : YUV
Chroma subsampling : 4:2:0
Bit depth : 8 bits
Scan type : Progressive
Bits/(Pixel*Frame) : 0.221
Stream size : 136 MiB (88%)
Writing library : x264 core 79
Encoding settings : cabac=1 / ref=2 / deblock=1:0:0 / analyse=0x1:0x111 / me=hex / subme=6 / psy=1 / psy_rd=1.0:0.0 / mixed_ref=0 / me_range=16 / chroma_me=1 / trellis=0 / 8x8dct=0 / cqm=0 / deadzone=21,11 / chroma_qp_offset=-2 / threads=3 / nr=0 / decimate=1 / mbaff=0 / constrained_intra=0 / bframes=2 / b_pyramid=0 / b_adapt=1 / b_bias=0 / direct=1 / wpredb=0 / wpredp=2 / keyint=250 / keyint_min=25 / scenecut=40 / rc_lookahead=40 / rc=2pass / mbtree=1 / bitrate=1700 / ratetol=1.0 / qcomp=0.60 / qpmin=10 / qpmax=51 / qpstep=4 / cplxblur=20.0 / qblur=0.5 / ip_ratio=1.40 / aq=1:1.00
Language : English
Default : Yes
Forced : No
Color primaries : BT.601 NTSC
Transfer characteristics : BT.709
Matrix coefficients : BT.601
Audio
ID : 2
Format : MPEG Audio
Format version : Version 1
Format profile : Layer 3
Mode : Joint stereo
Mode extension : MS Stereo
Codec ID : A_MPEG/L3
Codec ID/Hint : MP3
Duration : 11mn 23s
Bit rate mode : Constant
Bit rate : 192 Kbps
Channel(s) : 2 channels
Sampling rate : 48.0 KHz
Compression mode : Lossy
Stream size : 15.6 MiB (10%)
Writing library : LAME3.98
Default : Yes
Forced : No

Скриншот c названием фильма

Скриншоты








Показать сообщения:    

Текущее время: 04-Дек 17:18

Часовой пояс: UTC + 3


Вы не можете начинать темы
Вы не можете отвечать на сообщения
Вы не можете редактировать свои сообщения
Вы не можете удалять свои сообщения
Вы не можете голосовать в опросах
Вы не можете прикреплять файлы к сообщениям
Вы не можете скачивать файлы