Радость жизни / La joie de vivre (Энтони Гросс, Гектор Хоппин / Anthony Gross, Hector Hoppin) [1934, Франция, анимация, VHSRip]


 

[Цитировать]

Радость жизни / La joie de vivre
Страна: Франция
Жанр: анимация
Год выпуска: 1934
Продолжительность: 00:10:32
Перевод: не требуется
Cубтитры: нет
Режиссёры: Энтони Гросс, Гектор Хоппин / Anthony Gross, Hector Hoppin
Описание: Классика авторской анимации. Экспрессионистский мультфильм, вдохновенно воспевающий независимость и энергию молодости.
Доп. информация: Предупреждаю, что копия содержит видеопомехи. Зато здесь представлена полная версия фильма.
Качество видео: VHSRip
Формат видео: AVI
Видео: 1496 kbps, 640х480 (4:3), 25.000 fps, MPEG-4 Visual (XviD)
Аудио: 128 kbps, 44.1 kHz, 2 channels, MPEG Audio (MP3)

MediaInfo

Общее
Полное имя : La Joie de Vivre (1934).avi
Формат : AVI
Формат/Информация : Audio Video Interleave
Размер файла : 124 Мбайт
Продолжительность : 10 м.
Общий поток : 1641 Кбит/сек
Видео
Идентификатор : 0
Формат : MPEG-4 Visual
Профиль формата : Simple@L3
Параметр BVOP формата : Нет
Параметр QPel формата : Нет
Параметр GMC формата : Без точки перехода
Параметр матрицы формата : Default (H.263)
Идентификатор кодека : XVID
Идентификатор кодека/Подсказка : XviD
Продолжительность : 10 м.
Битрейт : 1496 Кбит/сек
Ширина : 640 пикселей
Высота : 480 пикселей
Соотношение сторон : 4:3
Частота кадров : 25,000 кадров/сек
Цветовое пространство : YUV
Субдискретизация насыщенности : 4:2:0
Битовая глубина : 8 бит
Тип развёртки : Прогрессивная
Метод сжатия : С потерями
Бит/(Пиксели*Кадры) : 0.195
Размер потока : 113 Мбайт (91%)
Библиотека кодирования : XviD 1.2.1 (UTC 2008-12-04)
Аудио
Идентификатор : 1
Формат : MPEG Audio
Версия формата : Version 1
Профиль формата : Layer 3
Режим : Joint stereo
Расширение режима : MS Stereo
Идентификатор кодека : 55
Идентификатор кодека/Подсказка : MP3
Продолжительность : 10 м.
Вид битрейта : Постоянный
Битрейт : 128 Кбит/сек
Каналы : 2 канала
Частота : 44,1 КГц
Метод сжатия : С потерями
Размер потока : 9,65 Мбайт (8%)
Выравнивание : Соединение по промежуткам
Продолжительность промежутка : 26 мс. (0,65 видеокадр)
Библиотека кодирования : LAME3.98.2

Скриншот c названием фильма

Скриншоты




Показать сообщения:    

Текущее время: 08-Дек 07:04

Часовой пояс: UTC + 3


Вы не можете начинать темы
Вы не можете отвечать на сообщения
Вы не можете редактировать свои сообщения
Вы не можете удалять свои сообщения
Вы не можете голосовать в опросах
Вы не можете прикреплять файлы к сообщениям
Вы не можете скачивать файлы