О золотой рыбке / O zlaté rybce (Иржи Трнка / Jirí Trnka) [1951, сказка, TVRip] VO Stalk


 

[Цитировать]

О золотой рыбке / O zlaté rybce
Страна: Чехословакия
Жанр: сказка
Продолжительность: 00:14:34
Год выпуска: 1951
Перевод: Одноголосый закадровый
Русские субтитры: нет
Режиссёр: Иржи Трнка / Jirí Trnka
Роли озвучивали: Stalk
Описание: Классический сюжет, взятый из сказок братьев Гримм. Александр Сергеевич Пушкин тоже где-то рядом, и рыбак обращается к рыбке стихами... Но жена рыбака хочет быть последовательно королем, императором, Папой (римским).... А далее... Не совсем как у Александра Сергеевича по словам. Но в точности так по смыслу! Шедевр Иржи Трнки! Правда, вынужден сказать, что это не совсем мультфильм... Скорее аудиокнига с картинками. Что, впрочем нисколько не умаляет достоинств этого фильма, снятого более пятидесяти лет назад. (с) bankolya
Доп. информация:
Релиз
Фильм перевел с чешского языка kilosa, и он же сделал субтитры.
Stalk озвучил мультфильм и синхронизировал звук, и вот, мы предлагаем его вашему вниманию!

Семпл: http://multi-up.com/884778
Качество: TVRip
Формат: AVI
Видео: 720x560 (1.29:1), 25 fps, XviD build 46 ~2014 kbps avg, 0.20 bit/pixel
Аудио: 44.100 kHz, MPEG Layer 3, 2 ch, ~128.00 kbps avg - Озвучивание киноклуба "Феникс"
Аудио 2: 48 kHz, MPEG Layer 3, 2 ch, ~128.00 kbps avg - Чешский
Субтитры: отсутствуют

Подробные технические данные

GeneralComplete name : D:\Раздачи\O.zlate.rybce.1951.rus.cheh.aviFormat : AVIFormat/Info : Audio Video InterleaveFile size : 238 MiBDuration : 14mn 34sOverall bit rate : 2 286 KbpsWriting application : VirtualDubMod 1.5.10.2 (build 2540/release)Writing library : VirtualDubMod build 2540/release
VideoID : 0Format : MPEG-4 VisualFormat profile : Simple@L3Format settings, BVOP : NoFormat settings, QPel : NoFormat settings, GMC : No warppointsFormat settings, Matrix : Default (H.263)Codec ID : DX50Codec ID/Hint : DivX 5Duration : 14mn 34sBit rate : 2 016 KbpsWidth : 720 pixelsHeight : 560 pixelsDisplay aspect ratio : 1.286Frame rate : 25.000 fpsColor space : YUVChroma subsampling : 4:2:0Bit depth : 8 bitsScan type : ProgressiveCompression mode : LossyBits/(Pixel*Frame) : 0.200Stream size : 210 MiB (88%)Writing library : XviD 1.1.2 (UTC 2006-11-01)
Audio #1ID : 1Format : MPEG AudioFormat version : Version 1Format profile : Layer 3Mode : Joint stereoMode extension : MS StereoCodec ID : 55Codec ID/Hint : MP3Duration : 14mn 34sBit rate mode : ConstantBit rate : 128 KbpsChannel(s) : 2 channelsSampling rate : 44.1 KHzCompression mode : LossyStream size : 13.3 MiB (6%)Alignment : Split accross interleavesInterleave, duration : 40 ms (1.00 video frame)Interleave, preload duration : 500 ms
Audio #2ID : 2Format : MPEG AudioFormat version : Version 1Format profile : Layer 3Mode : Joint stereoMode extension : MS StereoCodec ID : 55Codec ID/Hint : MP3Duration : 14mn 34sBit rate mode : ConstantBit rate : 128 KbpsChannel(s) : 2 channelsSampling rate : 48.0 KHzCompression mode : LossyStream size : 13.3 MiB (6%)Alignment : Split accross interleavesInterleave, duration : 40 ms (1.00 video frame)Interleave, preload duration : 500 ms

Скриншоты




Показать сообщения:    

Текущее время: 05-Дек 19:38

Часовой пояс: UTC + 3


Вы не можете начинать темы
Вы не можете отвечать на сообщения
Вы не можете редактировать свои сообщения
Вы не можете удалять свои сообщения
Вы не можете голосовать в опросах
Вы не можете прикреплять файлы к сообщениям
Вы не можете скачивать файлы