Штрихкод / Barcode, Штрихкод 3.0 / Barcode III.0 (Адриаан Локман / Adriaan Lokman) [2001, 2013, Нидерланды, авторская анимация, WEBRip-AVC]


 

[Цитировать]

Штрихкод / Barcode
Страна: Нидерланды
Жанр: абстракция, авторская анимация
Год выпуска: 2001
Продолжительность: 00:08:33
Перевод: Не требуется
Cубтитры: нет
Режиссер: Адриаан Локман / Adriaan Lokman
Описание: Чёрно-белая 3D-композиция из виртуального мира, заполненного гладкими цилиндрами.
Бездушная красота симметричных построений, абстрактная игра света и тени.
Доп. информация: Награды:
Annecy International Festival d'Animation 2002 - Grand Prix
Holland Animation Film Festival 2002 - Grand Prix
Zagreb International Animation Film Festival 2002 - Honarable mention
Leipzig International Festival for Documentary and Animated film 2002 - Silver Dove
International Shortfilm Festival, Hamburg 2002 - Price of BITfilm jury
New York EXPO 2002 - Special mention for use of CGI
Worldfest 2003, Houston - Gold Award
Качество видео: WEBRip-AVC
Формат видео: MKV
Видео: 700 kbps, 640х480 (4x3), 25.000 fps, AVC (High@L3.1)
Аудио: 101 kbps, 44.1 kHz, 2 channels, AAC (LC)

MediaInfo

Общее
Уникальный идентификатор : 207348584684317873219248609087978962241 (0x9BFDE2835DA9640E9B57A30098177D41)
Полное имя : Barcode (2001).mkv
Формат : Matroska
Версия формата : Version 4 / Version 2
Размер файла : 49,1 Мбайт
Продолжительность : 8 м. 33 с.
Общий поток : 801 Кбит/сек
Дата кодирования : UTC 2013-06-29 11:31:00
Программа кодирования : mkvmerge v6.0.0 ('Coming Up For Air') built on Jan 20 2013 09:52:00
Библиотека кодирования : libebml v1.3.0 + libmatroska v1.4.0
Видео
Идентификатор : 1
Формат : AVC
Формат/Информация : Advanced Video Codec
Профиль формата : High@L3.1
Параметр CABAC формата : Да
Параметр ReFrames формата : 3 кадра
Идентификатор кодека : V_MPEG4/ISO/AVC
Продолжительность : 8 м. 33 с.
Номинальный битрейт : 700 Кбит/сек
Ширина : 640 пикселей
Высота : 480 пикселей
Соотношение сторон : 4:3
Режим частоты кадров : Постоянный
Частота кадров : 25,000 кадров/сек
Цветовое пространство : YUV
Субдискретизация насыщенности : 4:2:0
Битовая глубина : 8 бит
Тип развёртки : Прогрессивная
Бит/(Пиксели*Кадры) : 0.091
Библиотека кодирования : x264 core 129 r2230 1cffe9f
Настройки программы : cabac=1 / ref=3 / deblock=1:0:0 / analyse=0x3:0x133 / me=umh / subme=7 / psy=1 / psy_rd=1.00:0.00 / mixed_ref=1 / me_range=16 / chroma_me=1 / trellis=2 / 8x8dct=1 / cqm=0 / deadzone=21,11 / fast_pskip=1 / chroma_qp_offset=-2 / threads=6 / lookahead_threads=1 / sliced_threads=0 / nr=0 / decimate=1 / interlaced=0 / bluray_compat=0 / constrained_intra=0 / bframes=6 / b_pyramid=1 / b_adapt=1 / b_bias=0 / direct=3 / weightb=1 / open_gop=0 / weightp=1 / keyint=250 / keyint_min=25 / scenecut=40 / intra_refresh=0 / rc_lookahead=40 / rc=abr / mbtree=1 / bitrate=700 / ratetol=1.0 / qcomp=0.60 / qpmin=0 / qpmax=69 / qpstep=4 / ip_ratio=1.40 / aq=1:1.00
Default : Да
Forced : Нет
Аудио
Идентификатор : 2
Формат : AAC
Формат/Информация : Advanced Audio Codec
Профиль формата : LC
Идентификатор кодека : A_AAC
Продолжительность : 8 м. 33 с.
Каналы : 2 канала
Расположение каналов : Front: L R
Частота : 44,1 КГц
Метод сжатия : С потерями
Задержка видео : -36 мс.
Default : Да
Forced : Нет

Скриншот c названием фильма

Скриншоты

Штрихкод 3.0 / Barcode III.0
Страна: Нидерланды
Жанр: абстракция, авторская анимация
Год выпуска: 2013
Продолжительность: 00:08:30
Перевод: Не требуется
Cубтитры: нет
Режиссер: Адриаан Локман / Adriaan Lokman
Описание: Римейк, выпущенный через 12 лет после оригинала. Снят в стереоскопическом варианте. Здесь представлена плоская версия.
От фильма 2001 года отличается иным экранным разрешением, а также другим монтажом звука и видео.
Доп. информация: Отличия заметят лишь внимательные зрители.
Качество видео: WEBRip-AVC
Формат видео: MP4
Видео: 1280 kbps, 1280х720 (16x9), 25.000 fps, AVC (High@L3.1)
Аудио: 157 kbps, 48.0 kHz, 2 channels, AAC (LC)

MediaInfo

Общее
Полное имя : Barcode III.0 (2013).mp4
Формат : MPEG-4
Профиль формата : Base Media / Version 2
Идентификатор кодека : mp42
Размер файла : 87,6 Мбайт
Продолжительность : 8 м. 30 с.
Режим общего битрейта : Переменный
Общий поток : 1441 Кбит/сек
Дата кодирования : UTC 2013-05-23 12:29:47
Дата пометки : UTC 2013-05-23 12:29:47
Видео
Идентификатор : 1
Формат : AVC
Формат/Информация : Advanced Video Codec
Профиль формата : High@L3.1
Параметр CABAC формата : Да
Параметр ReFrames формата : 4 кадра
Идентификатор кодека : avc1
Идентификатор кодека/Информация : Advanced Video Coding
Продолжительность : 8 м. 30 с.
Битрейт : 1280 Кбит/сек
Ширина : 1280 пикселей
Высота : 720 пикселей
Соотношение сторон : 16:9
Режим частоты кадров : Постоянный
Частота кадров : 25,000 кадров/сек
Цветовое пространство : YUV
Субдискретизация насыщенности : 4:2:0
Битовая глубина : 8 бит
Тип развёртки : Прогрессивная
Бит/(Пиксели*Кадры) : 0.056
Размер потока : 77,9 Мбайт (89%)
Библиотека кодирования : x264 core 132 r2310 76a5c3a
Настройки программы : cabac=1 / ref=3 / deblock=1:0:0 / analyse=0x3:0x113 / me=hex / subme=7 / psy=1 / psy_rd=1.00:0.00 / mixed_ref=1 / me_range=16 / chroma_me=1 / trellis=1 / 8x8dct=1 / cqm=0 / deadzone=21,11 / fast_pskip=1 / chroma_qp_offset=-2 / threads=48 / lookahead_threads=5 / sliced_threads=0 / nr=0 / decimate=1 / interlaced=0 / bluray_compat=0 / constrained_intra=0 / bframes=3 / b_pyramid=2 / b_adapt=1 / b_bias=0 / direct=1 / weightb=1 / open_gop=0 / weightp=2 / keyint=75 / keyint_min=25 / scenecut=40 / intra_refresh=0 / rc_lookahead=40 / rc=2pass / mbtree=1 / bitrate=1280 / ratetol=1.0 / qcomp=0.60 / qpmin=5 / qpmax=69 / qpstep=4 / cplxblur=20.0 / qblur=0.5 / vbv_maxrate=3750 / vbv_bufsize=12500 / nal_hrd=none / ip_ratio=1.40 / aq=1:1.00
Дата кодирования : UTC 2013-05-23 12:29:47
Дата пометки : UTC 2013-05-23 12:29:47
Аудио
Идентификатор : 2
Формат : AAC
Формат/Информация : Advanced Audio Codec
Профиль формата : LC
Идентификатор кодека : 40
Продолжительность : 8 м. 30 с.
Продолжительность оригинала : 8 м. 30 с.
Вид битрейта : Переменный
Битрейт : 157 Кбит/сек
Каналы : 2 канала
Расположение каналов : Front: L R
Частота : 48,0 КГц
Метод сжатия : С потерями
Задержка видео : 37 мс.
Размер потока : 9,57 Мбайт (11%)
Размер потока оригинала : 9,57 Мбайт (11%)
Дата кодирования : UTC 2013-05-23 12:29:47
Дата пометки : UTC 2013-05-23 12:29:47

Скриншот c названием фильма

Скриншоты




Показать сообщения:    

Текущее время: 09-Дек 22:29

Часовой пояс: UTC + 3


Вы не можете начинать темы
Вы не можете отвечать на сообщения
Вы не можете редактировать свои сообщения
Вы не можете удалять свои сообщения
Вы не можете голосовать в опросах
Вы не можете прикреплять файлы к сообщениям
Вы не можете скачивать файлы