Канатоходцы / Seiltänzer (Раймунд Крумме / Raimund Krumme) [1986, Германия, авторская анимация, VHSRip]


 

[Цитировать]

Канатоходцы / Seiltänzer
Страна: Германия
Жанр: авторская анимация
Год выпуска: 1986
Продолжительность: 00:09:44
Перевод: не требуется
Cубтитры: нет
Режиссёр: Раймунд Крумме / Raimund Krumme
Описание: Парадоксальная игра с пространством, совершаемая при помощи двух людей, квадрата и красной верёвки.
Доп. информация: Золотая награда за лучший короткометражный фильм в Германии (1987)
Первый приз жюри фестиваля «Annecy» (1987)
Качество видео: VHSRip
Формат видео: AVI
Видео: 1415 kbps, 640х480 (4:3), 25.000 fps, MPEG-4 (XviD)
Аудио: 112 kbps, 48.0 kHz, 2 channels, MPEG Audio (MP3)

MediaInfo

Общее
Полное имя : Seiltanzer (1986).avi
Формат : AVI
Формат/Информация : Audio Video Interleave
Размер файла : 107 Мбайт
Продолжительность : 9 м. 44 с.
Общий поток : 1540 Кбит/сек
Программа кодирования : Lavf54.59.107
Видео
Идентификатор : 0
Формат : MPEG-4 Visual
Профиль формата : Simple@L1
Параметр BVOP формата : Нет
Параметр QPel формата : Нет
Параметр GMC формата : Без точки перехода
Параметр матрицы формата : Default (H.263)
Идентификатор кодека : XVID
Идентификатор кодека/Подсказка : XviD
Продолжительность : 9 м. 44 с.
Битрейт : 1415 Кбит/сек
Ширина : 640 пикселей
Высота : 480 пикселей
Соотношение сторон : 4:3
Частота кадров : 25,000 кадров/сек
Цветовое пространство : YUV
Субдискретизация насыщенности : 4:2:0
Битовая глубина : 8 бит
Тип развёртки : Прогрессивная
Метод сжатия : С потерями
Бит/(Пиксели*Кадры) : 0.184
Размер потока : 98,6 Мбайт (92%)
Библиотека кодирования : Lavc54.86.100
Аудио
Идентификатор : 1
Формат : MPEG Audio
Версия формата : Version 1
Профиль формата : Layer 3
Режим : Joint stereo
Расширение режима : MS Stereo
Идентификатор кодека : 55
Идентификатор кодека/Подсказка : MP3
Продолжительность : 9 м. 44 с.
Вид битрейта : Постоянный
Битрейт : 112 Кбит/сек
Каналы : 2 канала
Частота : 48,0 КГц
Метод сжатия : С потерями
Размер потока : 7,80 Мбайт (7%)
Выравнивание : Соединение по промежуткам
Продолжительность промежутка : 24 мс. (0,60 видеокадр)
Время предзагрузки промежутка : 72 мс.

Скриншот c названием фильма

Скриншоты




Показать сообщения:    

Текущее время: 07-Дек 13:31

Часовой пояс: UTC + 3


Вы не можете начинать темы
Вы не можете отвечать на сообщения
Вы не можете редактировать свои сообщения
Вы не можете удалять свои сообщения
Вы не можете голосовать в опросах
Вы не можете прикреплять файлы к сообщениям
Вы не можете скачивать файлы