Мутанты-пришельцы / Mutant Aliens (Билл Плимптон / Bill Plympton) [2001, США, авторская анимация, чёрный юмор, DVDRip] DVO


 

[Цитировать]

Пришельцы-мутанты / Mutant Aliens
Страна: США
Жанр: авторская анимация, чёрный юмор
Год выпуска: 2001
Продолжительность: 01:21:20
Перевод: Профессиональный (двухголосый закадровый)
Cубтитры: нет
Режиссер: Билл Плимптон / Bill Plympton
Описание: Довольно циничная (а местами – довольно фривольная) анимационная комедия.
Астронавт Эрл Дженсен был обречён на смерть в космосе – таким подлым способом глава космического агентства поправлял свои финансовые дела. Однако, спустя годы Дженсен всё же нашёл способ вернуться на Землю, чтобы отомстить. Прибыл он не один, а с новыми друзьями…
Доп. информация: Гран-При фестиваля «Annecy» в категории полнометражных фильмов (2001)
Сэмпл: http://multi-up.com/878981
Качество видео: DVDRip
Формат видео: AVI
Видео: 1060 kbps, 608х336 (16:9), 23.976 fps, MPEG-4 Visual (XviD)
Аудио: 128 kbps, 44.1 kHz, 2 channels, MPEG Audio (MP3)

MediaInfo

Общее
Полное имя : Mutant aliens (2001).avi
Формат : AVI
Формат/Информация : Audio Video Interleave
Размер файла : 697 Мбайт
Продолжительность : 1 ч. 21 м.
Общий поток : 1197 Кбит/сек
Программа кодирования : VirtualDubMod 1.5.10.1 (build 2366/release)
Библиотека кодирования : VirtualDubMod build 2366/release
Видео
Идентификатор : 0
Формат : MPEG-4 Visual
Профиль формата : Simple@L3
Параметр BVOP формата : Нет
Параметр QPel формата : Нет
Параметр GMC формата : Без точки перехода
Параметр матрицы формата : Default (MPEG)
Идентификатор кодека : XVID
Идентификатор кодека/Подсказка : XviD
Продолжительность : 1 ч. 21 м.
Битрейт : 1060 Кбит/сек
Ширина : 608 пикселей
Высота : 336 пикселей
Соотношение сторон : 16:9
Частота кадров : 23,976 кадра/сек
Цветовое пространство : YUV
Субдискретизация насыщенности : 4:2:0
Битовая глубина : 8 бит
Тип развёртки : Прогрессивная
Метод сжатия : С потерями
Бит/(Пиксели*Кадры) : 0.216
Размер потока : 617 Мбайт (89%)
Библиотека кодирования : XviD 0.0.09 (UTC 2003-03-25)
Аудио
Идентификатор : 1
Формат : MPEG Audio
Версия формата : Version 1
Профиль формата : Layer 3
Режим : Joint stereo
Расширение режима : MS Stereo
Идентификатор кодека : 55
Идентификатор кодека/Подсказка : MP3
Продолжительность : 1 ч. 21 м.
Вид битрейта : Постоянный
Битрейт : 128 Кбит/сек
Каналы : 2 канала
Частота : 44,1 КГц
Метод сжатия : С потерями
Размер потока : 74,5 Мбайт (11%)
Выравнивание : Разделение по промежуткам
Продолжительность промежутка : 42 мс. (1,00 видеокадр)
Время предзагрузки промежутка : 500 мс.

Скриншот c названием фильма

Скриншоты




Показать сообщения:    

Текущее время: 06-Дек 20:55

Часовой пояс: UTC + 3


Вы не можете начинать темы
Вы не можете отвечать на сообщения
Вы не можете редактировать свои сообщения
Вы не можете удалять свои сообщения
Вы не можете голосовать в опросах
Вы не можете прикреплять файлы к сообщениям
Вы не можете скачивать файлы