Прекрасная Люканида, или война рогачей и усачей (Владислав Старевич) [1912, Россия, анимация, DVDScreener] [Реконструкция "Госфильмофонд", 2012]


 

[Цитировать]

Прекрасная Люканида, или война рогачей и усачей / Реконструкция "Госфильмофонд", 2012
Страна: Россия
Жанр: анимация
Год выпуска: 1912
Продолжительность: 00:10:29
Cубтитры: нет
Режиссер: Владислав Старевич
В ролях: текст читает Александр Негреба
Описание: Король Цервус дает в своем замке пышный бал. Среди прочих гостей самый почетный гость страны усачей — граф Герос. Цервус с королевой Люканидой, красой и гордостью всей страны рогачей, восседает на троне. Во время праздника король застает Героса, который тайно признается Люканиде в любви. Герос одерживает победу в дуэли на мечах и уходит из замка. Тем временем Люканида пытается утопиться в реке, но Герос вовремя спасает ее и увозит в свой замок. Развязывается кровопролитная война...
Вестник Кинематографии. 1912. № 32: «…Лучшей оценкой ее технических и художественных достоинств является то внимание, которым почтили эту ленту наши западноевропейские товарищи по делу кинематографии. Нам известно из самых достоверных источников, что тираж ее за границу уже перевалил за сотню экземпляров, что само собою говорит о достоинствах товара…»
Доп. информация: Релиз Феникс-клуба. Рип - pmv. Исходный материал предоставил Некто Андрей.
Качество видео: DVDScreener
Формат видео: AVI
Видео: 720x544 (1.32:1), 25 fps, XviD build 50 ~1999 kbps avg, 0.20 bit/pixel
Аудио: 48 kHz, MPEG Layer 3, 2 ch, ~128.00 kbps avg

MediaInfo

General
Complete name : Прекрасная Люканида или борьба рогачей с усачами (1912).avi
Format : AVI
Format/Info : Audio Video Interleave
File size : 160 MiB
Duration : 10mn 29s
Overall bit rate : 2 137 Kbps
Writing application : VirtualDubMod 1.5.10.3 | www.virtualdub-fr.org || (build 2550/release)
Writing library : VirtualDubMod build 2550/release
Video
ID : 0
Format : MPEG-4 Visual
Format profile : Advanced Simple@L5
Format settings, BVOP : 2
Format settings, QPel : No
Format settings, GMC : No warppoints
Format settings, Matrix : Default (H.263)
Codec ID : XVID
Codec ID/Hint : XviD
Duration : 10mn 29s
Bit rate : 2 000 Kbps
Width : 720 pixels
Height : 544 pixels
Display aspect ratio : 4:3
Frame rate : 25.000 fps
Color space : YUV
Chroma subsampling : 4:2:0
Bit depth : 8 bits
Scan type : Progressive
Compression mode : Lossy
Bits/(Pixel*Frame) : 0.204
Stream size : 150 MiB (94%)
Writing library : XviD 1.2.1 (UTC 2008-12-04)
Audio
ID : 1
Format : MPEG Audio
Format version : Version 1
Format profile : Layer 3
Codec ID : 55
Codec ID/Hint : MP3
Duration : 10mn 29s
Bit rate mode : Constant
Bit rate : 128 Kbps
Channel(s) : 2 channels
Sampling rate : 48.0 KHz
Compression mode : Lossy
Stream size : 9.61 MiB (6%)
Alignment : Aligned on interleaves
Interleave, duration : 40 ms (1.00 video frame)
Interleave, preload duration : 504 ms
Writing library : LAME3.99r
Encoding settings : -m s -V 4 -q 2 -lowpass 17 -b 128

Скриншоты




Показать сообщения:    

Текущее время: 06-Дек 17:10

Часовой пояс: UTC + 3


Вы не можете начинать темы
Вы не можете отвечать на сообщения
Вы не можете редактировать свои сообщения
Вы не можете удалять свои сообщения
Вы не можете голосовать в опросах
Вы не можете прикреплять файлы к сообщениям
Вы не можете скачивать файлы