Я вышла замуж за странную личность! / I Married a Strange Person! (Билл Плимптон / Bill Plympton) [1997, мультфильм, фантастика, драма, комедия, DVDRip] MVO (2x2) + Original Eng


 

[Цитировать]

--Я вышла замуж за странную личность!
I Married a Strange Person!
-- Название: Я вышла замуж за странную личность!
Оригинальное название: I Married a Strange Person!
Слоган: «The honeymoon is definitely over!»
Страна: США
Производство: Italtoons Corporation
Год: 1997
Продолжительность: 01:12:05
Жанр: мультфильм, фантастика, фэнтези, драма, комедия, ...
Перевод: Профессиональный (многоголосый закадровый), телеканал .
Оригинальная аудиодорожка: английский.
Субтитры: нет.--Режиссер: Билл Плимптон / Bill Plympton
Сценарий: Билл Плимптон, П.Х. Вей
Продюсер: Билл Плимптон, Джон Доннелли, Джон Холдеррид
Оператор: Джон Доннелли
Композитор: Морин МакЭлерон
Художник: Синье Баумане
Монтаж: Энтони Арсиди
В ролях:
Чарис Михельсен, Том Ларсон, Ричард Спор, Крис Кук, Рут Рэй, Дж.Б. Адамс, Джон Руссо мл., Дженнифер Сенько, Джон Холдеррид, Этта Валеска...--Описание:
История про одного человека, которому во время просмотра телевизора в затылок ударил электронный луч, что привело к появлению сверхспособностей.--Доп. информация:
Видеоряд заимствован из темы (раздачи) автор видеоряда roma1981.
Звук записан через bandicam и синхронизирован--Сэмпл: http://multi-up.com/877464
Качество: DVDRip
Формат: AVI
Видео-кодек: XviD
Аудио-кодек: AC3
Видео: 720x544 (1.32:1), 23.976 fps, XviD build 50 ~2482 kbps avg, 0.26 bit/pixel
Аудио 1: 48 kHz, AC3 Dolby Digital, 2/0 (L,R) ch, ~192 kbps |МVO| телеканал .
Аудио 2: 48 kHz, AC3 Dolby Digital, 2/0 (L,R) ch, ~192 kbps |English|

MedioInfo

Общее
Полное имя : C:\Users\User\Desktop\Я вышла замуж за странную личность!.avi
Формат : AVI
Формат/Информация : Audio Video Interleave
Размер файла : 1,45 Гбайт
Продолжительность : 1 ч. 12 м.
Общий поток : 2881 Кбит/сек
Программа кодирования : VirtualDubModRus 1.5.10.2 (build 2542/release)
Библиотека кодирования : VirtualDubMod build 2542/release
Видео
Идентификатор : 0
Формат : MPEG-4 Visual
Профиль формата : Advanced Simple@L5
Параметр BVOP формата : 1
Параметр QPel формата : Нет
Параметр GMC формата : Без точки перехода
Параметр матрицы формата : Default (MPEG)
Идентификатор кодека : XVID
Идентификатор кодека/Подсказка : XviD
Продолжительность : 1 ч. 12 м.
Битрейт : 2483 Кбит/сек
Ширина : 720 пикс.
Высота : 544 пикс.
Соотношение сторон : 4:3
Частота кадров : 23,976 кадр/сек
Цветовое пространство : YUV
Подвыборка цветности : 4:2:0
Битовая глубина : 8 бит
Тип развёртки : Прогрессивная
Метод сжатия : С потерями
Бит/(Пиксели*Кадры) : 0.264
Размер потока : 1,25 Гбайт (86%)
Библиотека кодирования : XviD 1.2.1 (UTC 2008-12-04)
Аудио #1
Идентификатор : 1
Формат : AC-3
Формат/Информация : Audio Coding 3
Расширение режима : CM (complete main)
Идентификатор кодека : 2000
Продолжительность : 1 ч. 12 м.
Вид битрейта : Постоянный
Битрейт : 192 Кбит/сек
Канал(ы) : 2 канала(ов)
Расположение каналов : Front: L R
Частота : 48,0 КГц
Битовая глубина : 16 бит
Метод сжатия : С потерями
Размер потока : 99,0 Мбайт (7%)
Выравнивание : Разделение по промежуткам
Продолжительность промежутка : 42 мс. (1,00 видеокадр)
Время предзагрузки промежутка : 500 ms
Аудио #2
Идентификатор : 2
Формат : AC-3
Формат/Информация : Audio Coding 3
Расширение режима : CM (complete main)
Идентификатор кодека : 2000
Продолжительность : 1 ч. 12 м.
Вид битрейта : Постоянный
Битрейт : 192 Кбит/сек
Канал(ы) : 2 канала(ов)
Расположение каналов : Front: L R
Частота : 48,0 КГц
Битовая глубина : 16 бит
Метод сжатия : С потерями
Размер потока : 99,0 Мбайт (7%)
Выравнивание : Разделение по промежуткам
Продолжительность промежутка : 42 мс. (1,00 видеокадр)
Время предзагрузки промежутка : 500 ms

Скриншот c названием фильма

Cкриншоты




Показать сообщения:    

Текущее время: 04-Дек 17:20

Часовой пояс: UTC + 3


Вы не можете начинать темы
Вы не можете отвечать на сообщения
Вы не можете редактировать свои сообщения
Вы не можете удалять свои сообщения
Вы не можете голосовать в опросах
Вы не можете прикреплять файлы к сообщениям
Вы не можете скачивать файлы