Пластилин, или происхождение видов / Clay or the Origin of Species (Элиот Нойес мл. / Eliot Noyes jr.) [1965, США, авторская анимация, DVDRip]


 

[Цитировать]

Пластилин, или происхождение видов / Clay or the Origin of Species
Страна: США
Жанр: авторская анимация
Год выпуска: 1965
Продолжительность: 00:08:45
Перевод: Не требуется
Cубтитры: нет
Режиссер: Элиот Нойес мл. / Eliot Noyes jr.
Описание: Экспериментальный мультфильм, который Элиот Нойес произвёл, будучи студентом Гарварда. На экранизацию теории Дарвина фильм не очень тянет, это просто эксперимент по анимированию пластилина.
Доп. информация: Приз за лучший дебют на фестивале «Annecy» (1965)
Номинация на «Оскар» (1966)
Качество видео: DVDRip
Формат видео: AVI
Видео: 768 kbps, 720х480 (3:2), 25.000 fps, MPEG-4 Visual (XviD)
Аудио: 128 kbps, 44.1 kHz, 2 channels, MPEG Audio (MP3)

MediaInfo

Общее
Полное имя : Clay (1965).avi
Формат : AVI
Формат/Информация : Audio Video Interleave
Размер файла : 56,9 Мбайт
Продолжительность : 8 м. 45 с.
Общий поток : 908 Кбит/сек
Программа кодирования : Lavf54.63.104
Видео
Идентификатор : 0
Формат : MPEG-4 Visual
Профиль формата : Simple@L3
Параметр BVOP формата : Нет
Параметр QPel формата : Нет
Параметр GMC формата : Без точки перехода
Параметр матрицы формата : Default (H.263)
Идентификатор кодека : XVID
Идентификатор кодека/Подсказка : XviD
Продолжительность : 8 м. 45 с.
Битрейт : 768 Кбит/сек
Ширина : 720 пикселей
Высота : 480 пикселей
Соотношение сторон : 3:2
Частота кадров : 25,000 кадров/сек
Стандарт вещания : NTSC
Цветовое пространство : YUV
Субдискретизация насыщенности : 4:2:0
Битовая глубина : 8 бит
Тип развёртки : Прогрессивная
Метод сжатия : С потерями
Бит/(Пиксели*Кадры) : 0.089
Размер потока : 48,1 Мбайт (85%)
Библиотека кодирования : XviD 1.2.1 (UTC 2008-12-04)
Аудио
Идентификатор : 1
Формат : MPEG Audio
Версия формата : Version 1
Профиль формата : Layer 3
Режим : Joint stereo
Расширение режима : MS Stereo
Идентификатор кодека : 55
Идентификатор кодека/Подсказка : MP3
Продолжительность : 8 м. 45 с.
Вид битрейта : Постоянный
Битрейт : 128 Кбит/сек
Каналы : 2 канала
Частота : 44,1 КГц
Метод сжатия : С потерями
Размер потока : 8,02 Мбайт (14%)
Выравнивание : Соединение по промежуткам
Продолжительность промежутка : 26 мс. (0,65 видеокадр)
Библиотека кодирования : LAME3.99.5

Скриншот c названием фильма

Скриншоты




Показать сообщения:    

Текущее время: 11-Дек 11:04

Часовой пояс: UTC + 3


Вы не можете начинать темы
Вы не можете отвечать на сообщения
Вы не можете редактировать свои сообщения
Вы не можете удалять свои сообщения
Вы не можете голосовать в опросах
Вы не можете прикреплять файлы к сообщениям
Вы не можете скачивать файлы