Мотивчик / The Tune (Билл Плимптон / Bill Plympton) [1992, США, мультфильм, DVD5] AVO (Антон Алексеев) + Original Eng


 

[Цитировать]

Мотивчик / The Tune
Страна: США
Жанр: авторская анимация
Год выпуска: 1992
Продолжительность: 01:09:17
Перевод: Авторский (одноголосый закадровый) Антон Алексеев
Cубтитры: нет
Оригинальная аудиодорожка: английский
Режиссер: Билл Плимптон / Bill Plympton
Описание: Сюрреалистическая музыкальная фантазия знаменитого американского аниматора Билла Плимптона, его первый полнометражный фильм.
У сочинителя песен Дэла есть всего 47 минут, чтобы написать суперхит. В противном случае отвратительный босс, мистер Мега, вышвырнет его из фирмы, и Дэл лишится работы и возлюбленной – секретарши Диди. К счастью для Дэла, он случайно оказывается в городе Флуби Нуби, где местные жители учат его писать песни из самого сердца, а не из словаря рифм. 10 музыкальных номеров, которые мы видим в фильме, соотносятся с разными формами американской популярной музыки.
К моменту выхода «Мотивчика» Билл Плимптон был уже широко известен как автор короткометражек («25 способов бросить курить»). Пришло время осуществить детскую мечту – сделать настоящий полнометражный фильм. Деньги на выпуск «Мотивчика» Плимптон заработал, делая анимацию для рекламных роликов на ТВ. Также, чтобы собрать средства, режиссёр выпустил небольшие кусочки фильма отдельными короткометражками. Одна из них – «Push comes to Shove» («Когда некуда деваться») – даже выиграла в 1991 году приз жюри на Каннском кинофестивале.
«Мотивчик» – наверное, самый лёгкий и весёлый фильм Плимптона. Здесь не так много насилия и странных фантазий, как в «Я вышла замуж за странную личность» и «Идиотах и ангелах». Тем не менее это классический плимптоновский мультфильм, со всеми особенностями стиля режиссёра. Кстати, это первый фильм в истории анимации, от начала до конца нарисованный самим режиссёром. Плимптон самостоятельно прорисовал каждый кадр этого 69-минутного фильма!Саундтрек к фильму – отдельный разговор: его можно слушать как самостоятельное художественное произведение. Его автор – давняя знакомая Плимптона, композитор Морин МакЭлхерон. Написанные ей музыкальные хиты в фильме исполняют самые странные герои – от таксиста без носа до собаки, изображающей Элвиса. «Мотивчик» получил две номинации на фестивалях «Санденс» и Independent Spirit, был высоко оценен критиками, завоевал огромную любовь зрителей и приобрёл статус культового. Но финансовой отдачи режиссёр от него не получил. Права на фильм почти сразу выкупила компания Oсtober Films, и в последующие десять лет режиссёр практически ничего на нём не заработал. Первые сборы он начал получать уже в 2000-х, выкупив права на картину и самостоятельно выпустив её на DVD.Ради работы над «Мотивчиком» Плимптон отказался от миллионного контракта cо студией «Дисней» ему предлагали рисовать джинна в мультфильме «Аладдин».
Доп. информация: Меню нет

Сэмпл: http://multi-up.com/875788
Качество видео: DVD5
Формат видео: DVD Video
Видео кодек: MPEG2
Аудио кодек: AC3
Видео: NTSC 4:3 (720x480(0.530)) MPEG Video, 29,970 кадр/сек, 5488 Кбит/сек
Аудио: Russian (Dolby AC3, 2ch) 224 Кбит/сек, 48,0 КГц
Аудио 2: English (Dolby AC3, 2ch) 224 Кбит/сек, 48,0 КГц

DVDInfo

Title:
Size: 2.93 Gb ( 3 072 344 KBytes ) - DVD-5
Enabled regions: 1, 2, 3, 4, 5, 6, 7, 8
VTS_01 :
Play Length: 01:09:17
Video: NTSC 4:3 (720x480) VBR
Audio:
Russian (Dolby AC3, 2 ch)
English (Dolby AC3, 2 ch)
Menu Video:
NTSC 4:3 (720x480) VBR
Menu Language Unit :
Chapter (PTT) Menu

MediaInfo

General
Complete name : D:\news\Мотивчик\VIDEO_TS\VTS_01_1.VOB
Format : MPEG-PS
File size : 1 024 MiB
Duration : 23mn 38s
Overall bit rate : 6 056 Kbps
Video
ID : 224 (0xE0)
Format : MPEG Video
Format version : Version 2
Format profile : Main@Main
Format settings, BVOP : Yes
Format settings, Matrix : Default
Duration : 23mn 38s
Bit rate mode : Variable
Bit rate : 5 488 Kbps
Nominal bit rate : 8 500 Kbps
Width : 720 pixels
Height : 480 pixels
Display aspect ratio : 4:3
Frame rate : 29.970 fps
Standard : NTSC
Color space : YUV
Chroma subsampling : 4:2:0
Bit depth : 8 bits
Scan type : Interlaced
Scan order : Top Field First
Bits/(Pixel*Frame) : 0.530
Stream size : 928 MiB (91%)
Audio #1
ID : 128 (0x80)
Format : AC-3
Format/Info : Audio Coding 3
Mode extension : CM (complete main)
Duration : 23mn 37s
Bit rate mode : Constant
Bit rate : 224 Kbps
Channel(s) : 2 channels
Channel positions : Front: L R
Sampling rate : 48.0 KHz
Stream size : 37.9 MiB (4%)
Audio #2
ID : 129 (0x81)
Format : AC-3
Format/Info : Audio Coding 3
Mode extension : CM (complete main)
Duration : 23mn 37s
Bit rate mode : Constant
Bit rate : 224 Kbps
Channel(s) : 2 channels
Channel positions : Front: L R
Sampling rate : 48.0 KHz
Stream size : 37.9 MiB (4%)
Menu

Постер




Показать сообщения:    

Текущее время: 02-Дек 21:15

Часовой пояс: UTC + 3


Вы не можете начинать темы
Вы не можете отвечать на сообщения
Вы не можете редактировать свои сообщения
Вы не можете удалять свои сообщения
Вы не можете голосовать в опросах
Вы не можете прикреплять файлы к сообщениям
Вы не можете скачивать файлы