Круг жизни / Lebensader (Ангела Штеффен / Angela Steffen) [2009, Германия, авторская анимация, WEBRip]


 

[Цитировать]

Круг жизни / Lebensader
Страна: Германия
Жанр: авторская анимация
Год выпуска: 2009
Продолжительность: 00:05:48
Перевод: не требуется
Cубтитры: нет
Режиссер: Ангела Штеффен / Angela Steffen
Описание: Маленькая девочка видит в листке растения целый мир, и чувствует единение с природой.
Дипломная работа студентки Киноакадемии Баден-Вюртемберга.
Доп. информация: Специальное упоминание на фестивале «Annecy» в категории дипломных работ (2010)
Качество видео: WEBRip-AVC
Формат видео: MP4
Видео: 1596 kbps, 1280х720 (16x9), 25.000 fps, AVC (High@L3.1)
Аудио: 192 kbps, 44.1 kHz, 2 channels, AAC (LC)

MediaInfo

Общее
Полное имя : Lebensader (2009).mp4
Формат : MPEG-4
Профиль формата : Base Media / Version 2
Идентификатор кодека : mp42
Размер файла : 74,5 Мбайт
Продолжительность : 5 м. 48 с.
Режим общего битрейта : Переменный
Общий поток : 1791 Кбит/сек
Дата кодирования : UTC 2013-02-12 13:45:34
Дата пометки : UTC 2013-02-12 13:45:34
gsst : 0
gstd : 349065
gssd : BADC232C5MH1370152302037035
gshh : r18---sn-5hn7snl6.c.youtube.com
Видео
Идентификатор : 1
Формат : AVC
Формат/Информация : Advanced Video Codec
Профиль формата : High@L3.1
Параметр CABAC формата : Да
Параметр ReFrames формата : 1 кадр
Параметр GOP формата : M=1, N=60
Идентификатор кодека : avc1
Идентификатор кодека/Информация : Advanced Video Coding
Продолжительность : 5 м. 48 с.
Битрейт : 1596 Кбит/сек
Максимальный битрейт : 5558 Кбит/сек
Ширина : 1280 пикселей
Высота : 720 пикселей
Соотношение сторон : 16:9
Режим частоты кадров : Постоянный
Частота кадров : 25,000 кадров/сек
Цветовое пространство : YUV
Субдискретизация насыщенности : 4:2:0
Битовая глубина : 8 бит
Тип развёртки : Прогрессивная
Бит/(Пиксели*Кадры) : 0.069
Размер потока : 66,4 Мбайт (89%)
Дата пометки : UTC 2013-02-12 13:45:37
Аудио
Идентификатор : 2
Формат : AAC
Формат/Информация : Advanced Audio Codec
Профиль формата : LC
Идентификатор кодека : 40
Продолжительность : 5 м. 48 с.
Вид битрейта : Переменный
Битрейт : 192 Кбит/сек
Максимальный битрейт : 202 Кбит/сек
Каналы : 2 канала
Расположение каналов : Front: L R
Частота : 44,1 КГц
Метод сжатия : С потерями
Размер потока : 7,99 Мбайт (11%)
Заголовок : IsoMedia File Produced by Google, 5-11-2011
Дата кодирования : UTC 2013-02-12 13:45:36
Дата пометки : UTC 2013-02-12 13:45:37

Скриншот c названием фильма

Скриншоты




Показать сообщения:    

Текущее время: 08-Дек 10:58

Часовой пояс: UTC + 3


Вы не можете начинать темы
Вы не можете отвечать на сообщения
Вы не можете редактировать свои сообщения
Вы не можете удалять свои сообщения
Вы не можете голосовать в опросах
Вы не можете прикреплять файлы к сообщениям
Вы не можете скачивать файлы