Закрыто по понедельникам / Closed Mondays (Уилл Винтон, Боб Гардинер / Will Vinton, Bob Gardiner) [1974, США, авторская анимация, VHSRip] original + rus sub


 

[Цитировать]

Закрыто по понедельникам / Closed Mondays
Страна: США
Жанр: авторская анимация
Год выпуска: 1974
Продолжительность: 00:07:21
Перевод: Субтитры (alex.n42)
Cубтитры: русские
Режиссёры: Уилл Винтон, Боб Гардинер / Will Vinton, Bob Gardiner
Описание: Нетрезвый человек проникает в закрытый выставочный зал, экспонаты которого вдруг начинают оживать…
«Оскар» за лучший короткометражный мультфильм (1975)
Приз критики на фестивале «Annecy» (1975)
Качество видео: VHSRip
Формат видео: AVI
Видео: 812 kbps, 640х480 (4:3), 23.976 fps, MPEG-4 Visual (DivX5)
Аудио: 128 kbps, 48.0 kHz, 2 channels, MPEG Audio (MP3)
Формат субтитров: softsub (SRT)

MediaInfo

Общее
Полное имя : Closed Mondays (1974).avi
Формат : AVI
Формат/Информация : Audio Video Interleave
Размер файла : 49,9 Мбайт
Продолжительность : 7 м. 21 с.
Общий поток : 949 Кбит/сек
Программа кодирования : FairUse Wizard - http://fairusewizard.com
Библиотека кодирования : The best and REALLY easy backup tool
Видео
Идентификатор : 0
Формат : MPEG-4 Visual
Параметр BVOP формата : 1
Параметр QPel формата : Нет
Параметр GMC формата : Без точки перехода
Параметр матрицы формата : Default (H.263)
Режим смешивания : Сжатый битовый поток
Идентификатор кодека : DX50
Идентификатор кодека/Подсказка : DivX 5
Продолжительность : 7 м. 21 с.
Битрейт : 812 Кбит/сек
Ширина : 640 пикселей
Высота : 480 пикселей
Соотношение сторон : 4:3
Частота кадров : 23,976 кадра/сек
Цветовое пространство : YUV
Субдискретизация насыщенности : 4:2:0
Битовая глубина : 8 бит
Тип развёртки : Прогрессивная
Метод сжатия : С потерями
Бит/(Пиксели*Кадры) : 0.110
Размер потока : 42,7 Мбайт (86%)
Библиотека кодирования : DivX 5.2.1 Beta (UTC 2004-09-08)
Аудио
Идентификатор : 1
Формат : MPEG Audio
Версия формата : Version 1
Профиль формата : Layer 3
Режим : Joint stereo
Расширение режима : MS Stereo
Идентификатор кодека : 55
Идентификатор кодека/Подсказка : MP3
Продолжительность : 7 м. 21 с.
Вид битрейта : Постоянный
Битрейт : 128 Кбит/сек
Каналы : 2 канала
Частота : 48,0 КГц
Метод сжатия : С потерями
Размер потока : 6,73 Мбайт (13%)
Выравнивание : Соединение по промежуткам
Продолжительность промежутка : 42 мс. (1,00 видеокадр)
Время предзагрузки промежутка : 504 мс.
Библиотека кодирования : LAME3.96r
Настройки программы : -m j -V 4 -q 2 -lowpass 17.5 -b 128

Скриншот c названием фильма

Скриншоты

Пример субтитров

1
00:00:00,500 --> 00:00:05,150
ЗАКРЫТО ПО ПОНЕДЕЛЬНИКАМ
2
00:01:04,660 --> 00:01:06,800
Большие картины...
3
00:01:27,850 --> 00:01:29,760
А это что?
4
00:01:45,730 --> 00:01:46,580
Эй... Что за чёрт?
5
00:02:32,000 --> 00:02:35,860
Что эти парни придумали ещё?..
6
00:03:09,810 --> 00:03:12,300
Интересно, как работает эта штуковина?
7
00:03:17,910 --> 00:03:19,000
Губы.
8
00:03:31,070 --> 00:03:36,000
Посмотрите на меня.
Я копия модели 505, тип П - электромозг...
9
00:03:36,190 --> 00:03:44,005
предназначенная для улучшения жизни человека
и его весёлого времяпрепровождения.
10
00:03:44,220 --> 00:03:49,425
После моего включения, вступает в действие
бесконечная программа мутации...



Показать сообщения:    

Текущее время: 05-Дек 03:24

Часовой пояс: UTC + 3


Вы не можете начинать темы
Вы не можете отвечать на сообщения
Вы не можете редактировать свои сообщения
Вы не можете удалять свои сообщения
Вы не можете голосовать в опросах
Вы не можете прикреплять файлы к сообщениям
Вы не можете скачивать файлы