Божьи коровки, Готлиба / La coccinelle de Gotlib (Марсель Готлиб / Marcel Gotlib) [1995, Франция, Анимация, юмор, DVDRip]


 

[Цитировать]

Божьи коровки, Готлиба / La coccinelle de Gotlib
Страна: Франция
Жанр: Анимация, юмор
Год выпуска: 1995
Продолжительность: 00:41:08
Перевод: Не требуется
Cубтитры: нет
Режиссер: Марсель Готлиб / Marcel Gotlib
Описание: Обнаглевшие, вульгарные божьи коровки, всячески глумятся, издеваются над героями, великих произведений живописи; Монэ, Алвареза, Ван Гога, Курбе, Латура, Ренуара, да Винчи и других...
Доп. информация: Эстетам, серьезно относящимся к живописи, смотреть не рекомендуется!
Сэмпл: http://multi-up.com/871549
Качество видео: DVDRip
Формат видео: AVI
Видео: 640x464 (1.38:1), 25 fps, XviD build 65 ~1493 kbps avg, 0.20 bit/pixel
Аудио: 48 kHz, MPEG Layer 3, 2 ch, ~128.00 kbps avg

MediaInfo

General
Complete name : D:\MOVIE\La coccinelle de Gotlib. Marcel Gotlib. 2006 .avi
Format : AVI
Format/Info : Audio Video Interleave
File size : 480 MiB
Duration : 41mn 7s
Overall bit rate : 1 631 Kbps
Writing application : FairUse Wizard - http://fairusewizard.com
Writing library : VirtualDub build 32842/release
Video
ID : 0
Format : MPEG-4 Visual
Format profile : Advanced Simple@L5
Format settings, BVOP : 2
Format settings, QPel : No
Format settings, GMC : No warppoints
Format settings, Matrix : Custom
Codec ID : XVID
Codec ID/Hint : XviD
Duration : 41mn 7s
Bit rate : 1 493 Kbps
Width : 640 pixels
Height : 464 pixels
Display aspect ratio : 1.379
Frame rate : 25.000 fps
Color space : YUV
Chroma subsampling : 4:2:0
Bit depth : 8 bits
Scan type : Progressive
Compression mode : Lossy
Bits/(Pixel*Frame) : 0.201
Stream size : 439 MiB (92%)
Writing library : XviD 65
Audio
ID : 1
Format : MPEG Audio
Format version : Version 1
Format profile : Layer 3
Mode : Joint stereo
Mode extension : MS Stereo
Codec ID : 55
Codec ID/Hint : MP3
Duration : 41mn 7s
Bit rate mode : Constant
Bit rate : 128 Kbps
Channel(s) : 2 channels
Sampling rate : 48.0 KHz
Compression mode : Lossy
Stream size : 37.7 MiB (8%)
Alignment : Aligned on interleaves
Interleave, duration : 40 ms (1.00 video frame)
Interleave, preload duration : 504 ms
Writing library : LAME3.97
Encoding settings : -m j -V 4 -q 2 -lowpass 17 -b 128

Скриншот c названием фильма

Скриншоты





Показать сообщения:    

Текущее время: 09-Дек 06:57

Часовой пояс: UTC + 3


Вы не можете начинать темы
Вы не можете отвечать на сообщения
Вы не можете редактировать свои сообщения
Вы не можете удалять свои сообщения
Вы не можете голосовать в опросах
Вы не можете прикреплять файлы к сообщениям
Вы не можете скачивать файлы