Тук-Тук / Tup-Tup (Неделько Драгич / Nedeljko Dragić) [1972, Югославия, авторская анимация, VHSRip]


 

[Цитировать]

Тук-Тук / Tup-Tup
Страна: Югославия
Жанр: авторская анимация
Год выпуска: 1972
Продолжительность: 00:09:27
Перевод: Не требуется
Cубтитры: нет
Режиссер: Неделько Драгич / Nedeljko Dragić
Описание: Человек собирается спать, но ему мешает, раздающееся непонятно откуда, громкое «Тук-Тук». Затем начинают происходить совсем уже невероятные вещи, а «Тук-Тук» при этом не затихает…
Неконтролируемый разгул фантазии от одного из лучших аниматоров студии «Zagreb-film».
Доп. информация: Номинация на «Оскар» (1973)
Качество видео: VHSRip
Формат видео: AVI
Видео: 677 kbps, 640х480 (4:3), 24.000 fps, MPEG-4 Visual (XviD)
Аудио: 128 kbps, 44.1 kHz, 2 channels, MPEG Audio (MP3)

MediaInfo

Общее
Полное имя : Tup-tup (1972).avi
Формат : AVI
Формат/Информация : Audio Video Interleave
Размер файла : 55,3 Мбайт
Продолжительность : 9 м. 27 с.
Общий поток : 818 Кбит/сек
Программа кодирования : Lavf54.29.105
Видео
Идентификатор : 0
Формат : MPEG-4 Visual
Профиль формата : Simple@L1
Параметр BVOP формата : Нет
Параметр QPel формата : Нет
Параметр GMC формата : Без точки перехода
Параметр матрицы формата : Default (H.263)
Идентификатор кодека : XVID
Идентификатор кодека/Подсказка : XviD
Продолжительность : 9 м. 27 с.
Битрейт : 677 Кбит/сек
Ширина : 640 пикселей
Высота : 480 пикселей
Соотношение сторон : 4:3
Частота кадров : 24,000 кадра/сек
Цветовое пространство : YUV
Субдискретизация насыщенности : 4:2:0
Битовая глубина : 8 бит
Тип развёртки : Прогрессивная
Метод сжатия : С потерями
Бит/(Пиксели*Кадры) : 0.092
Размер потока : 45,9 Мбайт (83%)
Библиотека кодирования : Lavc54.63.100
Аудио
Идентификатор : 1
Формат : MPEG Audio
Версия формата : Version 1
Профиль формата : Layer 3
Режим : Joint stereo
Идентификатор кодека : 55
Идентификатор кодека/Подсказка : MP3
Продолжительность : 9 м. 27 с.
Вид битрейта : Постоянный
Битрейт : 128 Кбит/сек
Каналы : 2 канала
Частота : 44,1 КГц
Метод сжатия : С потерями
Размер потока : 8,66 Мбайт (16%)
Выравнивание : Соединение по промежуткам
Продолжительность промежутка : 26 мс. (0,63 видеокадр)
Время предзагрузки промежутка : 25 мс.
Библиотека кодирования : LAME3.99.5

Скриншот c названием фильма

Скриншоты




Показать сообщения:    

Текущее время: 07-Дек 23:19

Часовой пояс: UTC + 3


Вы не можете начинать темы
Вы не можете отвечать на сообщения
Вы не можете редактировать свои сообщения
Вы не можете удалять свои сообщения
Вы не можете голосовать в опросах
Вы не можете прикреплять файлы к сообщениям
Вы не можете скачивать файлы