Трамвай / Tram (Михаэла Павлатова / Michaela Pavlatova) [2012, Франция, Чехия, авторская анимация, WEB-Rip]


 

[Цитировать]

Трамвай / Tram
Страна: Франция, Чехия
Жанр: авторская анимация
Год выпуска: 2012
Продолжительность: 00:07:49
Перевод: Не требуется
Cубтитры: нет
Режиссер: Михаэла Павлатова / Michaela Pavlátová
Описание: Михаэла Павлатова (как всегда оригинально и без лишнего ханжества) рассказывает историю одинокой женщины-вагоновожатой, в фантазиях которой трамвайный рейс с полным салоном мужчин превращается в некий эротический перфоманс.
Доп. информация: Гран-при «Annecy» (2012)
Качество видео: WEB-Rip
Формат видео: MKV
Видео: 712 kbps, 854х480 (16:9), 25.000 fps, AVC (Main@L3.0) 712 Кбит/сек
Аудио: 128 kbps, 44.1 kHz, 2 channels, MPEG Audio (MP3)

MediaInfo

Общее
Уникальный идентификатор : 235423386133178096265855938695224176359 (0xB11CE517EC6638118C737B2A12DD2EE7)
Полное имя : Tram (2012).mkv
Формат : Matroska
Версия формата : Version 4 / Version 2
Размер файла : 48,0 Мбайт
Продолжительность : 7 м. 49 с.
Общий поток : 857 Кбит/сек
Дата кодирования : UTC 2013-05-09 13:43:28
Программа кодирования : mkvmerge v6.0.0 ('Coming Up For Air') built on Jan 20 2013 09:52:00
Библиотека кодирования : libebml v1.3.0 + libmatroska v1.4.0
Видео
Идентификатор : 1
Формат : AVC
Формат/Информация : Advanced Video Codec
Профиль формата : Main@L3.0
Параметр CABAC формата : Да
Параметр ReFrames формата : 3 кадра
Параметр GOP формата : M=1, N=50
Идентификатор кодека : V_MPEG4/ISO/AVC
Продолжительность : 7 м. 49 с.
Битрейт : 712 Кбит/сек
Ширина : 854 пикселя
Высота : 480 пикселей
Соотношение сторон : 16:9
Режим частоты кадров : Постоянный
Частота кадров : 25,000 кадров/сек
Цветовое пространство : YUV
Субдискретизация насыщенности : 4:2:0
Битовая глубина : 8 бит
Тип развёртки : Прогрессивная
Бит/(Пиксели*Кадры) : 0.069
Размер потока : 39,8 Мбайт (83%)
Default : Да
Forced : Нет
Аудио
Идентификатор : 2
Формат : MPEG Audio
Версия формата : Version 1
Профиль формата : Layer 3
Режим : Joint stereo
Расширение режима : MS Stereo
Идентификатор кодека : A_MPEG/L3
Идентификатор кодека/Подсказка : MP3
Продолжительность : 7 м. 49 с.
Вид битрейта : Постоянный
Битрейт : 128 Кбит/сек
Каналы : 2 канала
Частота : 44,1 КГц
Метод сжатия : С потерями
Размер потока : 7,17 Мбайт (15%)
Библиотека кодирования : LAME3.99.5
Default : Да
Forced : Нет

Скриншот c названием фильма

Скриншоты




Показать сообщения:    

Текущее время: 04-Дек 17:20

Часовой пояс: UTC + 3


Вы не можете начинать темы
Вы не можете отвечать на сообщения
Вы не можете редактировать свои сообщения
Вы не можете удалять свои сообщения
Вы не можете голосовать в опросах
Вы не можете прикреплять файлы к сообщениям
Вы не можете скачивать файлы