Сказки-потешки (Андрей Бахурин) [2009-2012, Русские мультсказки-потешки, анимация, DVDRip]


 

[Цитировать]

Сказки-потешки
Страна: РФ
Жанр: Русские мультсказки-потешки
Продолжительность: 24 х 00:01:28.
Год выпуска: 2009-2012
Режиссёр: Андрей Бахурин
Роли озвучивали: Фёдор Громов
Описание: Очень короткие нравоучительно-сатирические сказки.

Список потешек:

01 Сапожник на небе.avi
02 Грибы.avi
03 Клад.avi
04 Мужик и черт.avi
05 Старая хлеб-соль.avi
06 Шерстень.avi
07 Про лису.avi
08 Глиняный Ваня.avi
09 Волшебный гусь.avi
10 Бурдучок.avi
11 Кольцо змея.avi
12 Паспорт.avi
13 Каша.avi
14 Курочка и кочеток.avi
15 На небе.avi
16 Награда.avi
17 Апостол Петр.avi
18 Рыба.avi
19 Врешь.avi
20 Доброе слово.avi
21 Худо, да не очень.avi
22 Сабля.avi
23 Жадина.avi
24 Арбуз.avi
Семпл: http://multi-up.com/866859
Качество: DVDRip
Формат: AVI
Видео: 720x544 (1.32:1), 25 fps, XviD build 64 ~1450 kbps avg, 0.15 bit/pixel
Аудио: 48 kHz, MPEG Layer 3, 2 ch, ~192.00 kbps avg

Подробные технические данные

Полное имя : E:\РАЗДАЧИ\Сказки-потешки.avi\01 Сапожник на небе.aviФормат : AVIФормат/Информация : Audio Video InterleaveРазмер файла : 17,4 МбайтПродолжительность : 1 м. 28 с.Общий поток : 1656 Кбит/секПрограмма кодирования : Lavf54.63.100
ВидеоИдентификатор : 0Формат : MPEG-4 VisualПрофиль формата : Simple@L3Параметр BVOP формата : НетПараметр QPel формата : НетПараметр GMC формата : Без точки переходаПараметр матрицы формата : Default (H.263)Идентификатор кодека : XVIDИдентификатор кодека/Подсказка : XviDПродолжительность : 1 м. 28 с.Битрейт : 1451 Кбит/секШирина : 720 пикселейВысота : 544 пикселяСоотношение сторон : 4:3Частота кадров : 25,000 кадров/секЦветовое пространство : YUVСубдискретизация насыщенности : 4:2:0Битовая глубина : 8 битТип развёртки : ПрогрессивнаяМетод сжатия : С потерямиБит/(Пиксели*Кадры) : 0.148Размер потока : 15,2 Мбайт (88%)Библиотека кодирования : XviD 64
АудиоИдентификатор : 1Формат : MPEG AudioВерсия формата : Version 1Профиль формата : Layer 3Идентификатор кодека : 55Идентификатор кодека/Подсказка : MP3Продолжительность : 1 м. 27 с.Вид битрейта : ПостоянныйБитрейт : 192 Кбит/секКаналы : 2 каналаЧастота : 48,0 КГцМетод сжатия : С потерямиРазмер потока : 2,00 Мбайт (12%)Выравнивание : Соединение по промежуткамПродолжительность промежутка : 24 мс. (0,60 видеокадр)Время предзагрузки промежутка : 24 мс.

Скриншоты




Показать сообщения:    

Текущее время: 08-Дек 23:08

Часовой пояс: UTC + 3


Вы не можете начинать темы
Вы не можете отвечать на сообщения
Вы не можете редактировать свои сообщения
Вы не можете удалять свои сообщения
Вы не можете голосовать в опросах
Вы не можете прикреплять файлы к сообщениям
Вы не можете скачивать файлы