Эбигейл / Abigail (Тони Камли / Tony Comley) [2005, Великобритания, авторская анимация, DVDRip] original + rus sub


 

[Цитировать]

Эбигейл / Abigail
Страна: Великобритания
Жанр: авторская анимация
Год выпуска: 2005
Продолжительность: 00:06:16
Перевод: субтитры (alex.n42)
Cубтитры: русские
Режиссер: Тони Камли / Tony Comley
Описание: Самолёт с горящими двигателями несётся к земле, а пассажиры радостно распевают популярный спиричуэлс… Впрочем, фильм не об этом. Это фильм о любви. О такой любви, когда один шаг до ненависти (и обратно) и только смерть может соединить две этих души…
Дипломная работа студента Королевского колледжа искусств.
Доп. информация: Специальное упоминание на фестивале «Annecy» в категории дипломных работ (2006)
Качество видео: DVDRip
Формат видео: AVI
Видео: 885 kbps, 704х400 (16:9), 25.000 fps, MPEG-4 Visual (XviD)
Аудио: 192 kbps, 44.1 kHz, 2 channels, MPEG Audio (MP3)
Формат субтитров: softsub (SRT)

MediaInfo

Общее
Полное имя : Abigail (2005).avi
Формат : AVI
Формат/Информация : Audio Video Interleave
Размер файла : 48,9 Мбайт
Продолжительность : 6 м. 16 с.
Общий поток : 1090 Кбит/сек
Программа кодирования : Lavf54.29.105
Видео
Идентификатор : 0
Формат : MPEG-4 Visual
Профиль формата : Simple@L1
Параметр BVOP формата : Нет
Параметр QPel формата : Нет
Параметр GMC формата : Без точки перехода
Параметр матрицы формата : Default (H.263)
Идентификатор кодека : XVID
Идентификатор кодека/Подсказка : XviD
Продолжительность : 6 м. 16 с.
Битрейт : 885 Кбит/сек
Ширина : 704 пикселя
Высота : 400 пикселей
Соотношение сторон : 16:9
Частота кадров : 25,000 кадров/сек
Цветовое пространство : YUV
Субдискретизация насыщенности : 4:2:0
Битовая глубина : 8 бит
Тип развёртки : Прогрессивная
Метод сжатия : С потерями
Бит/(Пиксели*Кадры) : 0.126
Размер потока : 39,7 Мбайт (81%)
Библиотека кодирования : Lavc54.63.100
Аудио
Идентификатор : 1
Формат : MPEG Audio
Версия формата : Version 1
Профиль формата : Layer 3
Режим : Joint stereo
Расширение режима : MS Stereo
Идентификатор кодека : 55
Идентификатор кодека/Подсказка : MP3
Продолжительность : 6 м. 16 с.
Вид битрейта : Постоянный
Битрейт : 192 Кбит/сек
Каналы : 2 канала
Частота : 44,1 КГц
Метод сжатия : С потерями
Размер потока : 8,62 Мбайт (18%)
Выравнивание : Соединение по промежуткам
Продолжительность промежутка : 26 мс. (0,65 видеокадр)
Время предзагрузки промежутка : 26 мс.

Скриншот c названием фильма

Скриншоты

Пример субтитров

1
00:00:04,670 --> 00:00:07,800
"Эбигейл"
2
00:00:50,920 --> 00:00:52,710
Хватай гитару!
3
00:00:53,000 --> 00:00:53,880
ПЕРВЫЙ КЛАСС
4
00:01:03,160 --> 00:01:04,660
Вам нельзя сюда входить.
5
00:01:05,330 --> 00:01:06,240
Вам здесь не место.
6
00:01:07,100 --> 00:01:09,270
- Я с тем человеком.
- С каким?
7
00:01:09,800 --> 00:01:10,820
Который пьёт лимонад.
8
00:01:14,880 --> 00:01:16,100
Он очень странный.
9
00:01:16,940 --> 00:01:18,910
Спасибо. Я знаю.
10
00:01:31,850 --> 00:01:33,220
Давно не виделись.
11
00:01:33,690 --> 00:01:37,260
Внезапно так.
Ты всё ещё смотришь на то старое фото?
12
00:01:38,840 --> 00:01:42,060
Ты знаешь, что первый класс
всегда первым разбивается о землю?
13
00:01:43,420 --> 00:01:45,820
Шшш! Музыка сейчас начнётся.



Показать сообщения:    

Текущее время: 09-Дек 22:25

Часовой пояс: UTC + 3


Вы не можете начинать темы
Вы не можете отвечать на сообщения
Вы не можете редактировать свои сообщения
Вы не можете удалять свои сообщения
Вы не можете голосовать в опросах
Вы не можете прикреплять файлы к сообщениям
Вы не можете скачивать файлы