Чернила / pl.ink! (Анне Кристин Берге / Anne Kristin Berge) [2011, Норвегия, короткий метр, анимация, DVDRip]


 

[Цитировать]

Чернила / pl.ink!- Страна: Норвегия
Жанр: короткий метр, анимация
Год выпуска: 2011
Продолжительность: 00:03:15-Перевод: не требуется
Cубтитры: нет
Оригинальная аудиодорожка: нет-Режиссер: Анне Кристин Берге / Anne Kristin Berge-Описание: Художник-минималист теряет своё непоседливое чадо в одной из нарисованных им картин. Ему приходится отправляться на выручку и спасать малыша от чернильных монстров. - IMDb
Художник-минималист в глубокой сосредоточенности работает над серией безнадёжных квадратов. К счастью, у него есть ребёнок, и вместе они отправляются в путешествие по его воображаемому миру, где игрушечный ксилофон превращается в летающий рояль, из закорючек на бумаге вырастает лес, а чернильные пятна становятся гигантскими монстрами. - NFI-Качество видео: DVDRip
Формат видео: AVI
Видео: XviD, 704x384 (16:9), 25.000 fps, 1 838 Kbps
Аудио: MP3, 48.0 KHz, 192 Kbps (constant), 2 channels

MediaInfo

General
Complete name : D:\
Format : AVI
Format/Info : Audio Video Interleave
File size : 47.4 MiB
Duration : 3mn 15s
Overall bit rate : 2 040 Kbps
Writing application : VirtualDubMod 1.5.10.2 (build 2540/release)
Writing library : VirtualDubMod build 2540/release
Video
ID : 0
Format : MPEG-4 Visual
Format profile : Advanced Simple@L5
Format settings, BVOP : Yes
Format settings, QPel : No
Format settings, GMC : No warppoints
Format settings, Matrix : Default (H.263)
Muxing mode : Packed bitstream
Codec ID : XVID
Codec ID/Hint : XviD
Duration : 3mn 15s
Bit rate : 1 838 Kbps
Width : 704 pixels
Height : 384 pixels
Display aspect ratio : 16:9
Frame rate : 25.000 fps
Resolution : 8 bits
Colorimetry : 4:2:0
Scan type : Progressive
Bits/(Pixel*Frame) : 0.272
Stream size : 42.7 MiB (90%)
Writing library : XviD 1.0.3 (UTC 2004-12-20)
Audio
ID : 1
Format : MPEG Audio
Format version : Version 1
Format profile : Layer 3
Mode : Joint stereo
Format_Settings_ModeExtension : MS Stereo
Codec ID : 55
Codec ID/Hint : MP3
Duration : 3mn 15s
Bit rate mode : Constant
Bit rate : 192 Kbps
Channel(s) : 2 channels
Sampling rate : 48.0 KHz
Stream size : 4.46 MiB (9%)
Alignment : Aligned on interleaves
Interleave, duration : 40 ms (1.00 video frame)
Interleave, preload duration : 504 ms

Скриншоты





Показать сообщения:    

Текущее время: 05-Дек 19:32

Часовой пояс: UTC + 3


Вы не можете начинать темы
Вы не можете отвечать на сообщения
Вы не можете редактировать свои сообщения
Вы не можете удалять свои сообщения
Вы не можете голосовать в опросах
Вы не можете прикреплять файлы к сообщениям
Вы не можете скачивать файлы