Прыгающие в кровати / Sanghopparna (Йохан Хагельбецк / Johan Hagelback) [2008, Швеция, Мультфильм, DVDRip] + Sub Rus + Original Swe


 

[Цитировать]

Прыгающие в кровати / Sanghopparna
Страна: Швеция
Жанр: Мультфильм
Год выпуска: 2008
Продолжительность: 00:04:32
Перевод: Субтитры
Cубтитры: русские
Оригинальная аудиодорожка: шведский
Режиссер: Йохан Хагельбецк / Johan Hagelbäck
Описание: Странноватый папаша, находит различные уловки для того, чтобы заставить детей спать.
Качество видео: DVDRip
Формат видео: AVI
Видео: Xvid 720x400 4:2:0 1 780 Kbps 25fps
Аудио: Dolby AC3 48000Hz stereo 192kbps

MediaInfo

General
Complete name : D:\MOVIE\Sänghopparna (2010) (XviD)\Sanghopparna.2010.DVDRip.XviD.avi
Format : AVI
Format/Info : Audio Video Interleave
File size : 64.2 MiB
Duration : 4mn 31s
Overall bit rate : 1 982 Kbps
Writing application : VirtualDubMod 1.5.10.2 (build 2540/release)
Writing library : VirtualDubMod build 2540/release
Video
ID : 0
Format : MPEG-4 Visual
Format profile : Advanced Simple@L5
Format settings, BVOP : 1
Format settings, QPel : No
Format settings, GMC : No warppoints
Format settings, Matrix : Default (MPEG)
Codec ID : XVID
Codec ID/Hint : XviD
Duration : 4mn 31s
Bit rate : 1 780 Kbps
Width : 720 pixels
Height : 400 pixels
Display aspect ratio : 16:9
Frame rate : 25.000 fps
Color space : YUV
Chroma subsampling : 4:2:0
Bit depth : 8 bits
Scan type : Progressive
Compression mode : Lossy
Bits/(Pixel*Frame) : 0.247
Stream size : 57.6 MiB (90%)
Writing library : XviD 1.2.1 (UTC 2008-12-04)
Audio
ID : 1
Format : AC-3
Format/Info : Audio Coding 3
Mode extension : CM (complete main)
Format settings, Endianness : Big
Codec ID : 2000
Duration : 4mn 31s
Bit rate mode : Constant
Bit rate : 192 Kbps
Channel(s) : 2 channels
Channel positions : Front: L R
Sampling rate : 48.0 KHz
Bit depth : 16 bits
Compression mode : Lossy
Stream size : 6.21 MiB (10%)
Alignment : Split accross interleaves
Interleave, duration : 40 ms (1.00 video frame)
Interleave, preload duration : 500 ms

Скриншоты





Субтитры

1
00:00:10,204 --> 00:00:13,514
Прыгающие в кровати.
2
00:00:33,694 --> 00:00:35,338
Хам-ди-дам...
3
00:00:48,960 --> 00:00:50,437
Не сейчас.
4
00:01:15,140 --> 00:01:18,211
А ну, быстро спать!
5
00:01:29,557 --> 00:01:32,285
Моя жена дома!
6
00:02:07,692 --> 00:02:08,882
Так-так...
7
00:02:10,043 --> 00:02:14,215
Один, два, три...
8
00:02:16,121 --> 00:02:17,976
Один, два...
9
00:02:50,180 --> 00:02:53,370
Моя жена ушла!



Показать сообщения:    

Текущее время: 11-Дек 16:48

Часовой пояс: UTC + 3


Вы не можете начинать темы
Вы не можете отвечать на сообщения
Вы не можете редактировать свои сообщения
Вы не можете удалять свои сообщения
Вы не можете голосовать в опросах
Вы не можете прикреплять файлы к сообщениям
Вы не можете скачивать файлы