Человек в голубом "Гордини" / L'Homme à la Gordini / The Man in the blue Gordini (Жан-Кристоф Ли / Jean-Christophe Lie) [2009, Франция, авторская анимация, DVDRip] original + rus sub


 

[Цитировать]

Человек в голубом "Гордини" / L'Homme à la Gordini / The Man in the blue Gordini
Страна: Франция
Жанр: авторская анимация
Год выпуска: 2009
Продолжительность: 00:09:53
Перевод: субтитры
Cубтитры: русские
Режиссер: Жан-Кристоф Ли / Jean-Christophe Lie
Описание: Действие происходит в альтернативном мире, где голубой цвет – вне закона. Всё вокруг исключительно оранжевое. Диссиденты, которые одеваются в голубое, подвергаются прессингу со стороны общества. Тот факт, что при этом все ходят без трусов – считается нормой. А ещё есть самодеятельный супергерой – человек в полумаске, разъезжающий в голубом «Гордини», и снабжающий желающих одеждой голубого цвета…
Доп. информация: Приз за лучший дебют на фестивале «Annecy» (2009)
Качество видео: DVDRip
Формат видео: AVI
Видео: 1496 kbps, 720х350 (2,057), 25.000 fps, MPEG-4 Visual (XviD)
Аудио: 192 kbps, 44.1 kHz, 2 channels, MPEG Audio (MP3)
Формат субтитров: hardsub – english, softsub (SRT) - russian

MediaInfo

Общее
Полное имя : L'Homme a la Gordini (2009).avi
Формат : AVI
Формат/Информация : Audio Video Interleave
Размер файла : 120 Мбайт
Продолжительность : 9 м. 53 с.
Общий поток : 1698 Кбит/сек
Видео
Идентификатор : 0
Формат : MPEG-4 Visual
Профиль формата : Advanced Simple@L5
Параметр BVOP формата : 2
Параметр QPel формата : Нет
Параметр GMC формата : Без точки перехода
Параметр матрицы формата : Default (H.263)
Идентификатор кодека : XVID
Идентификатор кодека/Подсказка : XviD
Продолжительность : 9 м. 53 с.
Битрейт : 1496 Кбит/сек
Ширина : 720 пикселей
Высота : 350 пикселей
Соотношение сторон : 2,057
Частота кадров : 25,000 кадров/сек
Цветовое пространство : YUV
Субдискретизация насыщенности : 4:2:0
Битовая глубина : 8 бит
Тип развёртки : Прогрессивная
Метод сжатия : С потерями
Бит/(Пиксели*Кадры) : 0.238
Размер потока : 106 Мбайт (88%)
Библиотека кодирования : XviD 1.2.1 (UTC 2008-12-04)
Аудио
Идентификатор : 1
Формат : MPEG Audio
Версия формата : Version 1
Профиль формата : Layer 3
Режим : Joint stereo
Расширение режима : MS Stereo
Идентификатор кодека : 55
Идентификатор кодека/Подсказка : MP3
Продолжительность : 9 м. 53 с.
Продолжительность оригинала : 9 м. 53 с.
Вид битрейта : Постоянный
Битрейт : 192 Кбит/сек
Каналы : 2 канала
Частота : 44,1 КГц
Метод сжатия : С потерями
Размер потока : 13,6 Мбайт (11%)
Выравнивание : Соединение по промежуткам
Продолжительность промежутка : 40 мс. (1,00 видеокадр)
Библиотека кодирования : LAME3.98.2

Скриншот c названием фильма

Скриншоты

Пример субтитров

1
00:00:39,150 --> 00:00:42,060
Человек в голубом "Гордини"
2
00:02:40,750 --> 00:02:42,000
Оранж FM...
3
00:02:42,220 --> 00:02:44,020
ваша единственная радиостанция.
4
00:02:44,100 --> 00:02:47,730
Сообщение от мадам Широлл,
из министерства вкуса.
5
00:02:48,460 --> 00:02:52,900
Человек в "Гордини" продолжает
своё жалкое восстание.
6
00:02:52,990 --> 00:02:55,830
Я призываю вас, сограждане, помочь нам...
7
00:02:56,000 --> 00:02:57,700
в борьбе с этим глупым мятежом!
8
00:02:57,850 --> 00:02:59,000
"Да" оранжевому во всём!



Показать сообщения:    

Текущее время: 02-Дек 23:10

Часовой пояс: UTC + 3


Вы не можете начинать темы
Вы не можете отвечать на сообщения
Вы не можете редактировать свои сообщения
Вы не можете удалять свои сообщения
Вы не можете голосовать в опросах
Вы не можете прикреплять файлы к сообщениям
Вы не можете скачивать файлы