Кама Сутра снова с нами / Kama Sutra rides again (Боб Годфри / Bob Godfrey) [1972, Великобритания, авторская анимация, VHSRip] original + rus sub


 

[Цитировать]

Кама Сутра снова с нами / Kama Sutra rides again
Страна: Великобритания
Жанр: авторская анимация
Год выпуска: 1972
Продолжительность: 00:09:05
Перевод: субтитры (переводчик – В.Борискин)
Cубтитры: русские
Режиссер: Боб Годфри / Bob Godfrey
Описание: Супружеская пара рассказывает о своём рационализаторском подходе к сексу.
Доп. информация: Номинация на «Оскар» (1973)
Качество видео: VHSRip
Формат видео: AVI
Видео: 1498 kbps, 640х480 (4:3), 25.000 fps, MPEG-4 Visual (XviD)
Аудио: 128 kbps, 44.1 kHz, 2 channels, MPEG Audio (MP3)
Формат субтитров: softsub (SRT)

MediaInfo

Общее
Полное имя : Kama Sutra rides again (1972).avi
Формат : AVI
Формат/Информация : Audio Video Interleave
Размер файла : 107 Мбайт
Продолжительность : 9 м. 5 с.
Общий поток : 1642 Кбит/сек
Видео
Идентификатор : 0
Формат : MPEG-4 Visual
Профиль формата : Simple@L3
Параметр BVOP формата : Нет
Параметр QPel формата : Нет
Параметр GMC формата : Без точки перехода
Параметр матрицы формата : Default (H.263)
Идентификатор кодека : XVID
Идентификатор кодека/Подсказка : XviD
Продолжительность : 9 м. 5 с.
Битрейт : 1498 Кбит/сек
Ширина : 640 пикселей
Высота : 480 пикселей
Соотношение сторон : 4:3
Частота кадров : 25,000 кадров/сек
Цветовое пространство : YUV
Субдискретизация насыщенности : 4:2:0
Битовая глубина : 8 бит
Тип развёртки : Прогрессивная
Метод сжатия : С потерями
Бит/(Пиксели*Кадры) : 0.195
Размер потока : 97,3 Мбайт (91%)
Библиотека кодирования : XviD 1.2.1 (UTC 2008-12-04)
Аудио
Идентификатор : 1
Формат : MPEG Audio
Версия формата : Version 1
Профиль формата : Layer 3
Режим : Joint stereo
Расширение режима : MS Stereo
Идентификатор кодека : 55
Идентификатор кодека/Подсказка : MP3
Продолжительность : 9 м. 5 с.
Вид битрейта : Постоянный
Битрейт : 128 Кбит/сек
Каналы : 2 канала
Частота : 44,1 КГц
Метод сжатия : С потерями
Размер потока : 8,32 Мбайт (8%)
Выравнивание : Соединение по промежуткам
Продолжительность промежутка : 26 мс. (0,65 видеокадр)
Библиотека кодирования : LAME3.98.2

Скриншот c названием фильма

Скриншоты

Пример субтитров

1
00:00:21,050 --> 00:00:24,550
КАМАСУТРА
снова с нами
2
00:01:13,160 --> 00:01:18,650
Многие люди живут скучной, пыльной, серой,
3
00:01:18,700 --> 00:01:23,240
тёмной, нудной, неинтересной жизнью.
4
00:01:23,680 --> 00:01:29,400
Но моя жена Этель и я - о, нет!
Мы верим в разнообразие.
5
00:01:30,110 --> 00:01:33,500
Разнообразие, друзья мои, это соль жизни.
6
00:01:35,360 --> 00:01:38,760
Например, у нас несколько домашних животных.
7
00:01:39,240 --> 00:01:41,720
Этель посещает курсы вождения.
8
00:01:42,610 --> 00:01:45,280
А я иногда пишу картины маслом.
9
00:01:46,780 --> 00:01:48,050
И конечно...
10
00:01:50,000 --> 00:01:56,350
Мы проводим в нашем коттедже в пустыне Гоби
первые две недели июля.
11
00:01:57,710 --> 00:02:03,440
Но, где Этель и я находим разнообразие
наиболее привлекательным...
12
00:02:03,550 --> 00:02:05,160
- это занятие любовью.
13
00:02:06,810 --> 00:02:11,290
Конечно, существует
много хороших книг на эту тему.



Показать сообщения:    

Текущее время: 02-Дек 23:11

Часовой пояс: UTC + 3


Вы не можете начинать темы
Вы не можете отвечать на сообщения
Вы не можете редактировать свои сообщения
Вы не можете удалять свои сообщения
Вы не можете голосовать в опросах
Вы не можете прикреплять файлы к сообщениям
Вы не можете скачивать файлы