Генри, с девяти до пяти / Henry 9 'til 5 (Боб Годфри / Bob Godfrey) [1970, Великобритания, авторская анимация, VHSRip] original + rus sub


 

[Цитировать]

Генри, с девяти до пяти / Henry 9 'til 5
Страна: Великобритания
Жанр: авторская анимация
Год выпуска: 1970
Продолжительность: 00:05:56
Перевод: субтитры (переводчик – В.Борискин)
Cубтитры: русские
Режиссер: Боб Годфри / Bob Godfrey
Описание: Эротические фантазии заурядного клерка в рабочее время.
Качество видео: VHSRip
Формат видео: AVI
Видео: 1486 kbps, 640х480 (4:3), 25.000 fps, MPEG-4 Visual (XviD)
Аудио: 128 kbps, 44.1 kHz, 2 channels, MPEG Audio (MP3)
Формат субтитров: softsub (SRT)

MediaInfo

Общее
Полное имя : Henry '9 til 5 (1970).avi
Формат : AVI
Формат/Информация : Audio Video Interleave
Размер файла : 69,3 Мбайт
Продолжительность : 5 м. 56 с.
Общий поток : 1630 Кбит/сек
Видео
Идентификатор : 0
Формат : MPEG-4 Visual
Профиль формата : Simple@L3
Параметр BVOP формата : Нет
Параметр QPel формата : Нет
Параметр GMC формата : Без точки перехода
Параметр матрицы формата : Default (H.263)
Идентификатор кодека : XVID
Идентификатор кодека/Подсказка : XviD
Продолжительность : 5 м. 56 с.
Битрейт : 1486 Кбит/сек
Ширина : 640 пикселей
Высота : 480 пикселей
Соотношение сторон : 4:3
Частота кадров : 25,000 кадров/сек
Цветовое пространство : YUV
Субдискретизация насыщенности : 4:2:0
Битовая глубина : 8 бит
Тип развёртки : Прогрессивная
Метод сжатия : С потерями
Бит/(Пиксели*Кадры) : 0.193
Размер потока : 63,2 Мбайт (91%)
Библиотека кодирования : XviD 1.2.1 (UTC 2008-12-04)
Аудио
Идентификатор : 1
Формат : MPEG Audio
Версия формата : Version 1
Профиль формата : Layer 3
Режим : Joint stereo
Расширение режима : MS Stereo
Идентификатор кодека : 55
Идентификатор кодека/Подсказка : MP3
Продолжительность : 5 м. 56 с.
Вид битрейта : Постоянный
Битрейт : 128 Кбит/сек
Каналы : 2 канала
Частота : 44,1 КГц
Метод сжатия : С потерями
Размер потока : 5,44 Мбайт (8%)
Выравнивание : Соединение по промежуткам
Продолжительность промежутка : 26 мс. (0,65 видеокадр)
Библиотека кодирования : LAME3.98.2

Скриншот c названием фильма

Скриншоты

Пример субтитров

1
00:00:07,480 --> 00:00:10,700
ГЕНРИ
с девяти до пяти
2
00:01:35,940 --> 00:01:38,300
Я не очень люблю свою работу.
3
00:01:39,440 --> 00:01:43,340
Но я открыл способ победить эту скуку,
4
00:01:43,410 --> 00:01:45,280
не уменьшая производительность труда.
5
00:01:46,110 --> 00:01:47,490
Я думаю о сексе.
6
00:02:00,360 --> 00:02:02,760
Я стараюсь думать о сексе весь день.
7
00:02:05,240 --> 00:02:07,720
Когда я вижу девушку с красивыми формами,
8
00:02:08,690 --> 00:02:10,280
я мысленно её раздеваю
9
00:02:11,080 --> 00:02:16,200
и представляю, как я догоняю её
совершенно голый в поле с ромашками.
10
00:02:21,560 --> 00:02:25,380
Если я нахожусь в более игривом
расположении духа, то представляю...
11
00:02:25,560 --> 00:02:30,390
как кидаю в неё сладкими пирожками.
12
00:02:38,720 --> 00:02:43,440
Также я люблю представлять,
как обнажённая леди прыгает на батуте.
13
00:02:44,880 --> 00:02:48,400
Это очень полезное упражнение,
как мне говорили.
14
00:02:51,810 --> 00:02:56,320
Иногда я мысленно переношусь
во времена древнего Рима.
15
00:02:57,360 --> 00:03:02,480
Говорят, тогда люди были раскрепощёнее,
особенно во время застолий.



Показать сообщения:    

Текущее время: 04-Дек 06:50

Часовой пояс: UTC + 3


Вы не можете начинать темы
Вы не можете отвечать на сообщения
Вы не можете редактировать свои сообщения
Вы не можете удалять свои сообщения
Вы не можете голосовать в опросах
Вы не можете прикреплять файлы к сообщениям
Вы не можете скачивать файлы