Альф, Билл и Фрэд / Alf, Bill & Fred (Боб Годфри / Bob Godfrey) [1964, Великобритания, авторская анимация, абсурдный юмор, VHSRip] original + rus sub


 

[Цитировать]

Альф, Билл и Фрэд / Alf, Bill & Fred
Страна: Великобритания
Жанр: авторская анимация, абсурдный юмор
Год выпуска: 1964
Продолжительность: 00:06:45
Перевод: Субтитры (alex.n42)
Cубтитры: русские
Режиссер: Боб Годфри / Bob Godfrey
Описание: История про трёх друзей (человека, утку и пса), которые любят прыгать вместе. Но их дружба оказывается под угрозой, после того как человек (Билл) неожиданно получает крупное наследство…
Для большего абсурда фильм стилизован под немое кино.
Качество видео: VHSRip
Формат видео: AVI
Видео: 1497 kbps, 640х480 (4:3), 25.000 fps, MPEG-4 Visual (XviD)
Аудио: 128 kbps, 44.1 kHz, 2 channels, MPEG Audio (MP3)
Формат субтитров: softsub (SRT)

MediaInfo

Общее
Полное имя : Alf, Bill & Fred (1964).avi
Формат : AVI
Формат/Информация : Audio Video Interleave
Размер файла : 79,4 Мбайт
Продолжительность : 6 м. 45 с.
Общий поток : 1642 Кбит/сек
Видео
Идентификатор : 0
Формат : MPEG-4 Visual
Профиль формата : Simple@L3
Параметр BVOP формата : Нет
Параметр QPel формата : Нет
Параметр GMC формата : Без точки перехода
Параметр матрицы формата : Default (H.263)
Идентификатор кодека : XVID
Идентификатор кодека/Подсказка : XviD
Продолжительность : 6 м. 45 с.
Битрейт : 1497 Кбит/сек
Ширина : 640 пикселей
Высота : 480 пикселей
Соотношение сторон : 4:3
Частота кадров : 25,000 кадров/сек
Цветовое пространство : YUV
Субдискретизация насыщенности : 4:2:0
Битовая глубина : 8 бит
Тип развёртки : Прогрессивная
Метод сжатия : С потерями
Бит/(Пиксели*Кадры) : 0.195
Размер потока : 72,4 Мбайт (91%)
Библиотека кодирования : XviD 1.2.1 (UTC 2008-12-04)
Аудио
Идентификатор : 1
Формат : MPEG Audio
Версия формата : Version 1
Профиль формата : Layer 3
Режим : Joint stereo
Расширение режима : MS Stereo
Идентификатор кодека : 55
Идентификатор кодека/Подсказка : MP3
Продолжительность : 6 м. 45 с.
Вид битрейта : Постоянный
Битрейт : 128 Кбит/сек
Каналы : 2 канала
Частота : 44,1 КГц
Метод сжатия : С потерями
Размер потока : 6,19 Мбайт (8%)
Выравнивание : Соединение по промежуткам
Продолжительность промежутка : 26 мс. (0,65 видеокадр)
Библиотека кодирования : LAME3.98.2

Скриншот c названием фильма

Скриншоты

Пример субтитров

1
00:00:12,500 --> 00:00:15,000
АЛЬФ, БИЛЛ и ФРЭД
2
00:00:38,900 --> 00:00:41,700
Билл - обычный человек...
3
00:00:49,200 --> 00:00:50,750
Довольный своей работой...
4
00:01:00,300 --> 00:01:03,300
Но более довольный дружбой
5
00:01:04,700 --> 00:01:08,800
с Альфом
6
00:01:11,300 --> 00:01:18,500
и Фрэдом
7
00:01:19,000 --> 00:01:21,600
Они играют в свою любимую игру
ПРЫЖКИ!!
8
00:01:26,000 --> 00:01:28,900
Они знают настоящее счастье.
9
00:01:34,000 --> 00:01:36,900
Прибыла телеграмма.
10
00:01:39,000 --> 00:01:44,950
Дядя Сет умер
11
00:02:00,000 --> 00:02:04,490
Оставив Биллу шестьдесят восемь тысяч
миллионов фунтов, четырнадцать шиллингов,
восемь пенсов и полпенни.
12
00:02:08,970 --> 00:02:10,950
Билл возбуждён!
13
00:02:16,100 --> 00:02:19,800
И обдумывает все вещи, которые он может купить!
14
00:02:27,000 --> 00:02:29,800
И все вещи, которые он может сделать...



Показать сообщения:    

Текущее время: 09-Дек 10:42

Часовой пояс: UTC + 3


Вы не можете начинать темы
Вы не можете отвечать на сообщения
Вы не можете редактировать свои сообщения
Вы не можете удалять свои сообщения
Вы не можете голосовать в опросах
Вы не можете прикреплять файлы к сообщениям
Вы не можете скачивать файлы