Подавление / Elfojtas (Галац Эстер Анна / Galacz Eszter Anna) [2012, Венгрия, авторская анимация, DVDRip] Sub Rus


 

[Цитировать]

Подавление / Elfojtas
Страна: Венгрия
Жанр: авторская анимация
Год выпуска: 2012
Продолжительность: 00:10:35
Перевод: Субтитры Анна Варга
Cубтитры: русские
Оригинальная аудиодорожка: венгерский
Режиссер: Галац Эстер Анна / Galácz Eszter Anna
Описание: Лирическая история о странной планете, где живут всего девять дней. За секунды взрослеют, за минуты учатся жить. И вот, мудрый мальчик, который проживет всего три дня, пытается познать мир…
Доп. информация: Этот анимационный фильм – дипломная работа. Сценарий, рисунок, режиссура, трансформированный голос принадлежат автору.
Качество видео: DVDRip
Формат видео: MP4
Видео: h264, 1920x1080, 25 fps, ~3073 kbps
Аудио: AAC, 152 Кбит/сек, 44, 1 КГц, 2 канала
Формат субтитров: softsub (SRT)

Пример субтитров

0:01:01.321 --> 0:01:03.321
Девять дней ...
0:01:03.608 --> 0:01:05.608
столько длилась средняя жизнь.
0:01:06.230 --> 0:01:08.230
Все за секунды взрослели и
0:01:08.978 --> 0:01:11.978
за минуты учились жить.
0:01:12.887 --> 0:01:14.887
Никто не шел дальше своих желаний,
0:01:15.631 --> 0:01:18.131
поэтому проживали дни
привязанными к своей планете...

MediaInfo

General
Complete name : D:\Венгерское кино\Elfojtás - Подавление.mp4
Format : MPEG-4
Format profile : Base Media / Version 2
Codec ID : mp42
File size : 247 MiB
Duration : 10mn 43s
Overall bit rate : 3 227 Kbps
Encoded date : UTC 2012-06-18 20:49:57
Tagged date : UTC 2012-06-18 20:49:57
gsst : 0
gstd : 643121
gssd : B4A7D6344MM1362768879398978
gshh : r16---sn-4g57kn7s.c.youtube.com
Video
ID : 1
Format : AVC
Format/Info : Advanced Video Codec
Format profile : High@L4.0
Format settings, CABAC : Yes
Format settings, ReFrames : 1 frame
Codec ID : avc1
Codec ID/Info : Advanced Video Coding
Duration : 10mn 43s
Bit rate mode : Variable
Bit rate : 3 073 Kbps
Maximum bit rate : 16.5 Mbps
Width : 1 920 pixels
Height : 1 080 pixels
Display aspect ratio : 16:9
Frame rate mode : Constant
Frame rate : 25.000 fps
Resolution : 8 bits
Colorimetry : 4:2:0
Scan type : Progressive
Bits/(Pixel*Frame) : 0.059
Stream size : 236 MiB (95%)
Tagged date : UTC 2012-06-18 20:49:58
Audio
ID : 2
Format : AAC
Format/Info : Advanced Audio Codec
Format version : Version 4
Format profile : LC
Format settings, SBR : No
Codec ID : 40
Duration : 10mn 43s
Bit rate mode : Variable
Bit rate : 152 Kbps
Maximum bit rate : 191 Kbps
Channel(s) : 2 channels
Channel positions : L R
Sampling rate : 44.1 KHz
Stream size : 11.6 MiB (5%)
Title : IsoMedia File Produced by Google, 5-11-2011
Encoded date : UTC 2012-06-18 20:49:58
Tagged date : UTC 2012-06-18 20:49:58

Скриншоты







Уважаемые зрители! Оставляйте отзывы! Ваши комментарии прочтет автор фильма!



Показать сообщения:    

Текущее время: 08-Дек 09:06

Часовой пояс: UTC + 3


Вы не можете начинать темы
Вы не можете отвечать на сообщения
Вы не можете редактировать свои сообщения
Вы не можете удалять свои сообщения
Вы не можете голосовать в опросах
Вы не можете прикреплять файлы к сообщениям
Вы не можете скачивать файлы