Окоп / La tranchee / La tranchée / The Trenches (Клод Клутье / Claude Cloutier) [2010, Канада, авторская анимация, военная драма, короткий метр, DVB]


 

[Цитировать]

Окоп
La tranchée / The Trenches- Страна: Канада
Жанр: авторская анимация, военная драма, короткий метр
Год выпуска: 2010
Продолжительность: 00:06:50
Перевод: Не требуется
Cубтитры: нет
Оригинальная аудиодорожка: музыкальное сопровождение
Режиссер: Клод Клутье / Claude Cloutier
В ролях: Марк-Андре Беланже / Marc-André Bélanger, Давид Лорен / David Laurin, Мартен Ватье / Martin Watier
Описание: Первая Мировая война. История перемежается воспоминаниями молодого канадского солдата о довоенной жизни: пахоте, поездке в Европу, океане, - и грязным окопом, бомбардировками, смертью и разрушением, что обступают его теперь со всех сторон. Клод Клутье дает свою интерпретацию библейской темы "Пусть мёртвые хоронят своих мертвецов".
Доп. информация: Собственная запись со спутника (канал TV5MONDE).
Награды: награда New York City Short Film Festival 2010 за лучшую анимацию + номинация на приз Зрительских симпатий; номинация Genie Awards 2011 на лучшую анимационную короткометражку.
Информация: http://www.imdb.com/title/tt1661058/
Сэмпл: http://multi-up.com/834131
Качество видео: DVB
Формат видео: MPEG-PS
Видео: MPEG Video 2, 720x576@1024x576 (16:9), 25 fps, ~3114 kbps avg, 0.300 bit/pixel
Аудио: 48 kHz, MPEG Audio 2, 2 ch, ~192.00 kbps avg

MediaInfo

Полное имя : H:\My Torrents\[apreder]MINI_MOVIE_008\[apreder]MM_La_tranchee(2010)DVB.mpgФормат : MPEG-PSРазмер файла : 165 МбайтПродолжительность : 6 м. 50 с.Режим общего битрейта : ПеременныйОбщий поток : 3373 Кбит/сек
ВидеоИдентификатор : 224 (0xE0)Формат : MPEG VideoВерсия формата : Version 2Профиль формата : Main@MainПараметр BVOP формата : ДаПараметр матрицы формата : ВыборочнаяПродолжительность : 6 м. 50 с.Вид битрейта : ПеременныйБитрейт : 3114 Кбит/секШирина : 720 пикселейВысота : 576 пикселейСоотношение сторон : 16:9Частота кадров : 25,000 кадров/секСтандарт вещания : PALЦветовое пространство : YUVСубдискретизация насыщенности : 4:2:0Битовая глубина : 8 битМетод сжатия : С потерямиБит/(Пиксели*Кадры) : 0.300Размер потока : 153 Мбайт (92%)
АудиоИдентификатор : 192 (0xC0)Формат : MPEG AudioВерсия формата : Version 1Профиль формата : Layer 2Продолжительность : 6 м. 50 с.Вид битрейта : ПостоянныйБитрейт : 192 Кбит/секКаналы : 2 каналаЧастота : 48,0 КГцМетод сжатия : С потерямиРазмер потока : 9,40 Мбайт (6%)

Скриншот c названием фильма

Скриншоты

Скриншоты анаморфированные

-623/605√



Показать сообщения:    

Текущее время: 09-Дек 18:35

Часовой пояс: UTC + 3


Вы не можете начинать темы
Вы не можете отвечать на сообщения
Вы не можете редактировать свои сообщения
Вы не можете удалять свои сообщения
Вы не можете голосовать в опросах
Вы не можете прикреплять файлы к сообщениям
Вы не можете скачивать файлы