Дядя / Uncle (Адам Бенжамин Эллиот / Adam Benjamin Elliot) [1996, Австралия, авторская анимация, DVDRip] original + rus sub


 

[Цитировать]

Дядя / Uncle
Страна: Австралия
Жанр: авторская анимация
Год выпуска: 1996
Продолжительность: 00:06:05
Перевод: Субтитры
Cубтитры: русские
Режиссер: Адам Бенжамин Эллиот / Adam Benjamin Elliot
В ролях: Уильям МакАйннес / William McInnes (рассказчик), Джон Флаус / John Flaus (голос дяди)
Описание: Первый фильм Адама Эллиота, снятый во время обучения в Викторианском Колледже Искусств, и определивший стиль всех его следующих работ.
Автор вспоминает своего дядю – немного странного, но добродушного человека. Впрочем, дядя из мультфильма – собирательный образ, основанный на воспоминаниях Адама о его восьми дядях.
Доп. информация: Ряд международных наград, включая награду Австралийского Киноинститута за лучшую короткометражную анимацию в 1997 году.
Качество видео: DVDRip
Формат видео: AVI
Видео: 1455 kbps, 560х416 (4:3), 24.000 fps, MPEG-4 Visual (XviD)
Аудио: 128 kbps, 48.0 kHz, 2 channel, MPEG Audio (MP3)
Формат субтитров: softsub (SRT)

MediaInfo

Общее
Полное имя : Uncle (1996).avi
Формат : AVI
Формат/Информация : Audio Video Interleave
Размер файла : 69,5 Мбайт
Продолжительность : 6 м. 5 с.
Общий поток : 1596 Кбит/сек
Программа кодирования : Lavf54.29.105
Видео
Идентификатор : 0
Формат : MPEG-4 Visual
Профиль формата : Simple@L1
Параметр BVOP формата : Нет
Параметр QPel формата : Нет
Параметр GMC формата : Без точки перехода
Параметр матрицы формата : Default (H.263)
Идентификатор кодека : XVID
Идентификатор кодека/Подсказка : XviD
Продолжительность : 6 м. 5 с.
Битрейт : 1455 Кбит/сек
Ширина : 560 пикселей
Высота : 416 пикселей
Соотношение сторон : 4:3
Частота кадров : 24,000 кадра/сек
Цветовое пространство : YUV
Субдискретизация насыщенности : 4:2:0
Битовая глубина : 8 бит
Тип развёртки : Прогрессивная
Метод сжатия : С потерями
Бит/(Пиксели*Кадры) : 0.260
Размер потока : 63,4 Мбайт (91%)
Библиотека кодирования : Lavc54.63.100
Аудио
Идентификатор : 1
Формат : MPEG Audio
Версия формата : Version 1
Профиль формата : Layer 3
Режим : Joint stereo
Расширение режима : MS Stereo
Идентификатор кодека : 55
Идентификатор кодека/Подсказка : MP3
Продолжительность : 6 м. 5 с.
Вид битрейта : Постоянный
Битрейт : 128 Кбит/сек
Каналы : 2 канала
Частота : 48,0 КГц
Метод сжатия : С потерями
Размер потока : 5,57 Мбайт (8%)
Выравнивание : Соединение по промежуткам
Продолжительность промежутка : 24 мс. (0,58 видеокадр)
Время предзагрузки промежутка : 72 мс.

Скриншот c названием фильма

Скриншоты

Пример субтитров

1
00:00:03,300 --> 00:00:05,210
ДЯДЯ
2
00:00:07,500 --> 00:00:09,800
Впервые я увидел своего дядю,
3
00:00:10,070 --> 00:00:14,240
когда мой отец взял меня
посмотреть на его хозяйственный магазин.
4
00:00:14,900 --> 00:00:17,630
Он чистил трубку специальным ёршиком,
5
00:00:19,380 --> 00:00:22,000
потом согнул его в виде паука
6
00:00:22,090 --> 00:00:23,400
и подарил мне.
7
00:00:24,890 --> 00:00:26,260
Для меня это было круто.
8
00:00:28,360 --> 00:00:30,680
Через несколько месяцев он уволился
9
00:00:30,730 --> 00:00:32,580
после продажи одного миллиона гвоздей.
10
00:00:33,820 --> 00:00:36,925
Мой дядя был женат на моей тёте.
11
00:00:37,250 --> 00:00:39,435
У них не было своих детей,
12
00:00:39,520 --> 00:00:41,980
так что я как бы заменял их.
13
00:00:42,221 --> 00:00:46,950
По вечерам мой дядя показывал мне
книгу по истории войны,
14
00:00:47,290 --> 00:00:49,960
а тётя мастерила человечков из ракушек
15
00:00:50,150 --> 00:00:52,250
для воскресной распродажи.



Показать сообщения:    

Текущее время: 11-Дек 16:51

Часовой пояс: UTC + 3


Вы не можете начинать темы
Вы не можете отвечать на сообщения
Вы не можете редактировать свои сообщения
Вы не можете удалять свои сообщения
Вы не можете голосовать в опросах
Вы не можете прикреплять файлы к сообщениям
Вы не можете скачивать файлы