Револьвер / Revolver / Här är karusellen (Йонас Оделл, Стиг Бергквист, Ларс Ольсон, Мартти Экстранд / Jonas Odell, Stig Bergqvist, Lars Ohlson, Martti Ekstrand) [1993, Швеция, авторская анимация, WEBRip]


 

[Цитировать]

Револьвер / Revolver / Här är karusellen
Страна: Швеция
Жанр: авторская анимация
Год выпуска: 1993
Продолжительность: 00:07:53
Перевод: Не требуется
Cубтитры: нет
Режиссеры: Йонас Оделл, Стиг Бергквист, Ларс Ольсон, Мартти Экстранд / Jonas Odell, Stig Bergqvist, Lars Ohlson, Martti Ekstrand
Описание: Жизнь состоит из циклов, которые повторяются, двигаясь по кругу. Как барабан револьвера. Как повторяющаяся мелодия шарманки. Как дыхание.
Фильм состоит из череды сюжетов, словно извлеченных из чужих подсознаний, и доступен для понимания на подсознательном уровне.
Доп. информация: «Лучший короткометражный фильм» - Международный фестиваль в Оттаве (1994)
Качество видео: WEBRip
Формат видео: MP4
Видео: 749 kbps, 640х480 (4:3), 25.000 fps, AVC (High@L3.1)
Аудио: 110 kbps, 44.1 kHz, 2 channels, AAC (LC)

MediaInfo

Общее
Полное имя : Revolver (1993).mp4
Формат : MPEG-4
Профиль формата : Base Media
Идентификатор кодека : isom
Размер файла : 48,7 Мбайт
Продолжительность : 7 м. 53 с.
Режим общего битрейта : Переменный
Общий поток : 863 Кбит/сек
Дата кодирования : UTC 2010-05-06 17:24:43
Дата пометки : UTC 2010-05-07 17:24:44
Видео
Идентификатор : 1
Формат : AVC
Формат/Информация : Advanced Video Codec
Профиль формата : High@L3.1
Параметр CABAC формата : Да
Параметр ReFrames формата : 4 кадра
Идентификатор кодека : avc1
Идентификатор кодека/Информация : Advanced Video Coding
Продолжительность : 7 м. 53 с.
Битрейт : 749 Кбит/сек
Максимальный битрейт : 1968 Кбит/сек
Ширина : 640 пикселей
Высота : 480 пикселей
Соотношение сторон : 4:3
Режим частоты кадров : Постоянный
Частота кадров : 25,000 кадров/сек
Цветовое пространство : YUV
Субдискретизация насыщенности : 4:2:0
Битовая глубина : 8 бит
Тип развёртки : Прогрессивная
Бит/(Пиксели*Кадры) : 0.098
Размер потока : 42,3 Мбайт (87%)
Библиотека кодирования : Vimeo Encoder
Дата кодирования : UTC 2010-05-06 17:24:43
Дата пометки : UTC 2010-05-06 17:24:44
Аудио
Идентификатор : 2
Формат : AAC
Формат/Информация : Advanced Audio Codec
Профиль формата : LC
Идентификатор кодека : 40
Продолжительность : 7 м. 53 с.
Вид битрейта : Переменный
Битрейт : 110 Кбит/сек
Максимальный битрейт : 134 Кбит/сек
Каналы : 2 канала
Расположение каналов : Front: L R
Частота : 44,1 КГц
Метод сжатия : С потерями
Размер потока : 6,22 Мбайт (13%)
Дата кодирования : UTC 2010-05-06 17:24:44
Дата пометки : UTC 2010-05-06 17:24:44

Скриншот c названием фильма

Скриншоты




Показать сообщения:    

Текущее время: 03-Дек 18:38

Часовой пояс: UTC + 3


Вы не можете начинать темы
Вы не можете отвечать на сообщения
Вы не можете редактировать свои сообщения
Вы не можете удалять свои сообщения
Вы не можете голосовать в опросах
Вы не можете прикреплять файлы к сообщениям
Вы не можете скачивать файлы