Дон Хертцфельдт / Don Hertzfeldt – Два мультфильма [1995, 1996, США, авторская анимация, чёрный юмор, DVDRip] original + rus sub


 

[Цитировать]

Дон Хертцфельдт / Don Hertzfeldt – Два мультфильма
Ах, любовь / Ah, l'amour
Страна: США
Жанр: авторская анимация, чёрный юмор
Год выпуска: 1995
Продолжительность: 00:05:21
Перевод: субтитры (alex.n42)
Cубтитры: русские
Описание: Самый первый фильм Дона Хертцфельдта, в котором этот циник выражает свой (весьма пессимистичный) взгляд на романтическую любовь.
Приз за самый смешной фильм - World Animation Celebration (1998)
Качество видео: DVDRip
Формат видео: AVI
Видео: 1244 kbps, 720х480 (3:2), 24.000 fps, MPEG-4 Visual (XviD)
Аудио: 192 kbps, 48.0 kHz, 2 channel, MPEG Audio (MP3)
Формат субтитров: softsub (SRT)

MediaInfo

Общее
Полное имя : Ah, l'amour (1995).avi
Формат : AVI
Формат/Информация : Audio Video Interleave
Размер файла : 23,6 Мбайт
Продолжительность : 2 м. 16 с.
Общий поток : 1449 Кбит/сек
Программа кодирования : Lavf54.29.105
Видео
Идентификатор : 0
Формат : MPEG-4 Visual
Профиль формата : Simple@L1
Параметр BVOP формата : Нет
Параметр QPel формата : Нет
Параметр GMC формата : Без точки перехода
Параметр матрицы формата : Default (H.263)
Идентификатор кодека : XVID
Идентификатор кодека/Подсказка : XviD
Продолжительность : 2 м. 16 с.
Битрейт : 1244 Кбит/сек
Ширина : 720 пикселей
Высота : 480 пикселей
Соотношение сторон : 3:2
Частота кадров : 24,000 кадра/сек
Стандарт вещания : NTSC
Цветовое пространство : YUV
Субдискретизация насыщенности : 4:2:0
Битовая глубина : 8 бит
Тип развёртки : Прогрессивная
Метод сжатия : С потерями
Бит/(Пиксели*Кадры) : 0.150
Размер потока : 20,3 Мбайт (86%)
Библиотека кодирования : Lavc54.63.100
Аудио
Идентификатор : 1
Формат : MPEG Audio
Версия формата : Version 1
Профиль формата : Layer 3
Режим : Joint stereo
Расширение режима : MS Stereo
Идентификатор кодека : 55
Идентификатор кодека/Подсказка : MP3
Продолжительность : 2 м. 16 с.
Вид битрейта : Постоянный
Битрейт : 192 Кбит/сек
Каналы : 2 канала
Частота : 48,0 КГц
Метод сжатия : С потерями
Размер потока : 3,13 Мбайт (13%)
Выравнивание : Соединение по промежуткам
Продолжительность промежутка : 24 мс. (0,58 видеокадр)
Время предзагрузки промежутка : 24 мс.
Библиотека кодирования : LAME3.99.5ЄЄЄЄЄЄЄЄЄЄ

Скриншот c названием фильма

Скриншоты

Жанр / Genre
Страна: США
Жанр: авторская анимация, чёрный юмор
Год выпуска: 1996
Продолжительность: 00:04:57
Перевод: субтитры (alex.n42)
Cубтитры: русские
Описание: Курсовая работа Дона Хертцфельдта.
Автор нарисовал персонажа – кролика, но никак не может определиться с жанром фильма, меняя его на ходу. Бедный персонаж вынужден к этому приспосабливаться.
15 фестивальных наград.
Качество видео: DVDRip
Формат видео: AVI
Видео: 1295 kbps, 720х480 (3:2), 24.000 fps, MPEG-4 Visual (XviD)
Аудио: 192 kbps, 48.0 kHz, 2 channel, MPEG Audio (MP3)
Формат субтитров: softsub (SRT)

MediaInfo

Общее
Полное имя : Genre (1996).avi
Формат : AVI
Формат/Информация : Audio Video Interleave
Размер файла : 53,1 Мбайт
Продолжительность : 4 м. 57 с.
Общий поток : 1499 Кбит/сек
Программа кодирования : Lavf54.29.105
Видео
Идентификатор : 0
Формат : MPEG-4 Visual
Профиль формата : Simple@L1
Параметр BVOP формата : Нет
Параметр QPel формата : Нет
Параметр GMC формата : Без точки перехода
Параметр матрицы формата : Default (H.263)
Идентификатор кодека : XVID
Идентификатор кодека/Подсказка : XviD
Продолжительность : 4 м. 57 с.
Битрейт : 1295 Кбит/сек
Ширина : 720 пикселей
Высота : 480 пикселей
Соотношение сторон : 3:2
Частота кадров : 24,000 кадра/сек
Стандарт вещания : NTSC
Цветовое пространство : YUV
Субдискретизация насыщенности : 4:2:0
Битовая глубина : 8 бит
Тип развёртки : Прогрессивная
Метод сжатия : С потерями
Бит/(Пиксели*Кадры) : 0.156
Размер потока : 45,9 Мбайт (86%)
Библиотека кодирования : Lavc54.63.100
Аудио
Идентификатор : 1
Формат : MPEG Audio
Версия формата : Version 1
Профиль формата : Layer 3
Режим : Joint stereo
Расширение режима : MS Stereo
Идентификатор кодека : 55
Идентификатор кодека/Подсказка : MP3
Продолжительность : 4 м. 57 с.
Вид битрейта : Постоянный
Битрейт : 192 Кбит/сек
Каналы : 2 канала
Частота : 48,0 КГц
Метод сжатия : С потерями
Размер потока : 6,80 Мбайт (13%)
Выравнивание : Соединение по промежуткам
Продолжительность промежутка : 24 мс. (0,58 видеокадр)
Время предзагрузки промежутка : 24 мс.
Библиотека кодирования : LAME3.99.5

Скриншот c названием фильма

Скриншоты




Показать сообщения:    

Текущее время: 07-Дек 19:23

Часовой пояс: UTC + 3


Вы не можете начинать темы
Вы не можете отвечать на сообщения
Вы не можете редактировать свои сообщения
Вы не можете удалять свои сообщения
Вы не можете голосовать в опросах
Вы не можете прикреплять файлы к сообщениям
Вы не можете скачивать файлы