Шарик Билли / Billy's balloon (Дон Хертцфельдт / Don Hertzfeldt) [1998, США, авторская анимация, чёрный юмор, DVDRip]


 

[Цитировать]

Шарик Билли / Billy's balloon
Страна: США
Жанр: авторская анимация, чёрный юмор
Год выпуска: 1998
Продолжительность: 00:05:26
Перевод: Не требуется
Cубтитры: нет
Режиссер: Дон Хертцфельдт / Don Hertzfeldt
Описание: Пока рядом нет взрослых, воздушный шарик решил поиздеваться над малышом Билли…
Дипломная работа двадцатидвухлетнего Дона Хертцфельдта, номинировавшаяся в Каннах на Пальмовую Ветвь за лучший короткометражный фильм.
26 фестивальных наград.
Качество видео: DVDRip
Формат видео: AVI
Видео: 1497 kbps, 720х480 (3:2), 24.000 fps, MPEG-4 Visual (XviD)
Аудио: 192 kbps, 48.0 kHz, 2 channel, MPEG Audio (MP3)

MediaInfo

Общее
Полное имя : Billy's balloon (1998).avi
Формат : AVI
Формат/Информация : Audio Video Interleave
Размер файла : 66,2 Мбайт
Продолжительность : 5 м. 26 с.
Общий поток : 1702 Кбит/сек
Программа кодирования : Lavf54.29.105
Видео
Идентификатор : 0
Формат : MPEG-4 Visual
Профиль формата : Simple@L1
Параметр BVOP формата : Нет
Параметр QPel формата : Нет
Параметр GMC формата : Без точки перехода
Параметр матрицы формата : Default (H.263)
Идентификатор кодека : XVID
Идентификатор кодека/Подсказка : XviD
Продолжительность : 5 м. 26 с.
Битрейт : 1497 Кбит/сек
Ширина : 720 пикселей
Высота : 480 пикселей
Соотношение сторон : 3:2
Частота кадров : 24,000 кадра/сек
Стандарт вещания : NTSC
Цветовое пространство : YUV
Субдискретизация насыщенности : 4:2:0
Битовая глубина : 8 бит
Тип развёртки : Прогрессивная
Метод сжатия : С потерями
Бит/(Пиксели*Кадры) : 0.180
Размер потока : 58,2 Мбайт (88%)
Библиотека кодирования : Lavc54.63.100
Аудио
Идентификатор : 1
Формат : MPEG Audio
Версия формата : Version 1
Профиль формата : Layer 3
Режим : Joint stereo
Расширение режима : MS Stereo
Идентификатор кодека : 55
Идентификатор кодека/Подсказка : MP3
Продолжительность : 5 м. 26 с.
Вид битрейта : Постоянный
Битрейт : 192 Кбит/сек
Каналы : 2 канала
Частота : 48,0 КГц
Метод сжатия : С потерями
Размер потока : 7,47 Мбайт (11%)
Выравнивание : Соединение по промежуткам
Продолжительность промежутка : 24 мс. (0,58 видеокадр)
Время предзагрузки промежутка : 24 мс.
Библиотека кодирования : LAME3.99.5

Скриншот c названием фильма

Скриншоты




Показать сообщения:    

Текущее время: 04-Дек 04:56

Часовой пояс: UTC + 3


Вы не можете начинать темы
Вы не можете отвечать на сообщения
Вы не можете редактировать свои сообщения
Вы не можете удалять свои сообщения
Вы не можете голосовать в опросах
Вы не можете прикреплять файлы к сообщениям
Вы не можете скачивать файлы