Ящик / The Box (Фрэд Вольф / Fred Wolf) [1967, США, авторская анимация, DVDRip]


 

[Цитировать]

Ящик / The Box
Страна: США
Жанр: авторская анимация
Год выпуска: 1967
Продолжительность: 00:07:16
Перевод: Не требуется
Режиссер: Фрэд Вольф / Fred Wolf
Описание: Седой бородач заходит в бар, ставит на стойку чёрный ящик и заказывает выпить. Разные люди пытаются так и эдак узнать, что же внутри ящика, но старик не очень настроен отвечать каждому…
«Оскар» за лучший короткометражный мультфильм (1968).
Доп. информация: Кстати, в том же году Боривой Довникович снял мультфильм «Любопытство» / «Znatizelja» с похожим сюжетом (но иным финалом) и тоже заработал ряд фестивальных наград. Фильм тут - http://rutracker.org/forum/viewtopic.php?t=1503266
Качество видео: DVDRip
Формат видео: AVI
Видео: 1032 kbps, 480х360 (4:3), 25.000 fps, MPEG-4 Visual (XviD)
Аудио: 128 kbps, 44.1 kHz, 2 channel, MPEG Audio (MP3)

MediaInfo

Общее
Полное имя : The Box (1967).avi
Формат : AVI
Формат/Информация : Audio Video Interleave
Размер файла : 60,8 Мбайт
Продолжительность : 7 м. 16 с.
Общий поток : 1170 Кбит/сек
Библиотека кодирования : Boilsoft Joiner build 2411/release
Видео
Идентификатор : 0
Формат : MPEG-4 Visual
Профиль формата : Simple@L1
Параметр BVOP формата : Нет
Параметр QPel формата : Нет
Параметр GMC формата : Без точки перехода
Параметр матрицы формата : Default (H.263)
Идентификатор кодека : XVID
Идентификатор кодека/Подсказка : XviD
Продолжительность : 7 м. 16 с.
Битрейт : 1032 Кбит/сек
Ширина : 480 пикселей
Высота : 360 пикселей
Соотношение сторон : 4:3
Частота кадров : 25,000 кадров/сек
Цветовое пространство : YUV
Субдискретизация насыщенности : 4:2:0
Битовая глубина : 8 бит
Тип развёртки : Прогрессивная
Метод сжатия : С потерями
Бит/(Пиксели*Кадры) : 0.239
Размер потока : 53,6 Мбайт (88%)
Библиотека кодирования : Lavc54.63.100
Аудио
Идентификатор : 1
Формат : MPEG Audio
Версия формата : Version 1
Профиль формата : Layer 3
Режим : Joint stereo
Расширение режима : MS Stereo
Идентификатор кодека : 55
Идентификатор кодека/Подсказка : MP3
Продолжительность : 7 м. 16 с.
Вид битрейта : Постоянный
Битрейт : 128 Кбит/сек
Каналы : 2 канала
Частота : 44,1 КГц
Метод сжатия : С потерями
Задержка видео : 24 мс.
Размер потока : 6,66 Мбайт (11%)
Выравнивание : Разделение по промежуткам
Продолжительность промежутка : 40 мс. (1,00 видеокадр)
Время предзагрузки промежутка : 500 мс.

Скриншот c названием фильма

Скриншоты




Показать сообщения:    

Текущее время: 09-Дек 06:58

Часовой пояс: UTC + 3


Вы не можете начинать темы
Вы не можете отвечать на сообщения
Вы не можете редактировать свои сообщения
Вы не можете удалять свои сообщения
Вы не можете голосовать в опросах
Вы не можете прикреплять файлы к сообщениям
Вы не можете скачивать файлы