Пожиратель картин / Dripped (Лео Веррье / Léo Verrier) [2010, Франция, короткометражный анимационный фильм, DVDRip]


 

[Цитировать]

Пожиратель картин / Dripped
Страна: Франция
Жанр: короткометражный анимационный фильм
Год выпуска: 2010
Продолжительность: 00:07:59
Перевод: Не требуется
Cубтитры: нет
Режиссер: Лео Веррье / Léo Verrier
Описание: Нью-Йорк, 1950 год. Страстно увлечённый живописью, Джек на протяжении всего времени грабит музеи. Он ворует картины, которые прячет у себя для того, чтобы их потом съесть! Произведения великих художников являются его пищей, и когда он их съедает, они погружают его в экстаз. Но их массивное потребление приводит к тому, что картины становятся редкими и потом совсем исчезают.
Качество видео: DVDRip
Формат видео: AVI
Видео: 720x400 (1.80:1), 25 fps, XviD MPEG-4 ~1212 kbps avg, 0.17 bit/pixe
Аудио: 48 kHz, AC3 Dolby Digital, 2/0 (L,R) ch, ~192.00 kbps avg

MediaInfo

General
Complete name : D:\MOVIE\КОРОТКОМЕТРАЖКА\Dripped_ Léo Verrier, 2010.avi
Format : AVI
Format/Info : Audio Video Interleave
File size : 82.7 MiB
Duration : 7mn 59s
Overall bit rate : 1 446 Kbps
Writing application : VirtualDubMod 1.5.10.2 (build 2540/release)
Writing library : VirtualDubMod build 2540/release
Video
ID : 0
Format : MPEG-4 Visual
Format profile : Advanced Simple@L5
Format settings, BVOP : 2
Format settings, QPel : No
Format settings, GMC : No warppoints
Format settings, Matrix : Custom
Muxing mode : Packed bitstream
Codec ID : XVID
Codec ID/Hint : XviD
Duration : 7mn 59s
Bit rate : 1 212 Kbps
Width : 720 pixels
Height : 400 pixels
Display aspect ratio : 16:9
Frame rate : 25.000 fps
Color space : YUV
Chroma subsampling : 4:2:0
Bit depth : 8 bits
Scan type : Progressive
Compression mode : Lossy
Bits/(Pixel*Frame) : 0.168
Stream size : 69.3 MiB (84%)
Writing library : XviD 65
Audio
ID : 1
Format : AC-3
Format/Info : Audio Coding 3
Mode extension : CM (complete main)
Codec ID : 2000
Duration : 7mn 59s
Bit rate mode : Constant
Bit rate : 224 Kbps
Channel(s) : 2 channels
Channel positions : Front: L R
Sampling rate : 48.0 KHz
Bit depth : 16 bits
Compression mode : Lossy
Delay relative to video : 1s 300ms
Stream size : 12.8 MiB (15%)
Alignment : Split accross interleaves
Interleave, duration : 40 ms (1.00 video frame)
Interleave, preload duration : 500 ms

Скриншот c названием фильма

Скриншоты




Показать сообщения:    

Текущее время: 25-Янв 00:22

Часовой пояс: UTC + 3


Вы не можете начинать темы
Вы не можете отвечать на сообщения
Вы не можете редактировать свои сообщения
Вы не можете удалять свои сообщения
Вы не можете голосовать в опросах
Вы не можете прикреплять файлы к сообщениям
Вы не можете скачивать файлы