Михаил Шварцман: Иературы / Mikhail Shvartsman: Hierature (Александр Павленко) [2009, Анимация, DVDRip]


 

[Цитировать]

Михаил Шварцман: Иературы / Mikhail Shvartsman: Hierature
Страна: Россия
Жанр: Анимация
Продолжительность: 00:07:20
Год выпуска: 2009
Режиссёр: Александр Павленко
Описание: Памяти художника Михаила Шварцмана. Иература суть символ души человеческой, инициированной знаками личного присутствия в обратной перспективе Царства Божия в нас.
Качество: DVDRip
Формат: AVI
Видео: 720x528 (1.36:1), 25 fps, XviD build 50 ~1954 kbps avg, 0.21 bit/pixel
Аудио: 48 kHz, MPEG Layer 3, 2 ch, ~128.00 kbps avg

Подробные технические данные

GeneralComplete name : D:\МУЛЬТФИЛЬМЫ\Михаил Шварцман Иературы.aviFormat : AVIFormat/Info : Audio Video InterleaveFile size : 110 MiBDuration : 7mn 20sOverall bit rate : 2 092 KbpsWriting application : VirtualDubMod 1.5.10.2 (build 2540/release)Writing library : VirtualDubMod build 2540/release
VideoID : 0Format : MPEG-4 VisualFormat profile : Simple@L3Format settings, BVOP : NoFormat settings, QPel : NoFormat settings, GMC : No warppointsFormat settings, Matrix : Default (H.263)Codec ID : XVIDCodec ID/Hint : XviDDuration : 7mn 20sBit rate : 1 954 KbpsWidth : 720 pixelsHeight : 528 pixelsDisplay aspect ratio : 4:3Frame rate : 25.000 fpsColor space : YUVChroma subsampling : 4:2:0Bit depth : 8 bitsScan type : ProgressiveCompression mode : LossyBits/(Pixel*Frame) : 0.206Stream size : 103 MiB (93%)Writing library : XviD 1.2.1 (UTC 2008-12-04)
AudioID : 1Format : MPEG AudioFormat version : Version 1Format profile : Layer 3Codec ID : 55Codec ID/Hint : MP3Duration : 7mn 20sBit rate mode : ConstantBit rate : 128 KbpsChannel(s) : 2 channelsSampling rate : 48.0 KHzCompression mode : LossyStream size : 6.71 MiB (6%)Alignment : Aligned on interleavesInterleave, duration : 40 ms (1.00 video frame)Interleave, preload duration : 504 msWriting library : LAME3.96rEncoding settings : -m s -V 4 -q 3 -lowpass 17.5 -b 128

Скриншоты




Показать сообщения:    

Текущее время: 07-Дек 21:24

Часовой пояс: UTC + 3


Вы не можете начинать темы
Вы не можете отвечать на сообщения
Вы не можете редактировать свои сообщения
Вы не можете удалять свои сообщения
Вы не можете голосовать в опросах
Вы не можете прикреплять файлы к сообщениям
Вы не можете скачивать файлы