Троицын день (Александр Павленко) [2011, Короткометражный, DVDRip]


 

[Цитировать]

Троицын день
Страна: Россия
Жанр: Короткометражный
Продолжительность: 00:03:49
Год выпуска: 2011
Режиссёр: Александр Павленко
Описание: Мультипликационный фильм для детей о праздничном дне Святой Троицы.
Качество: DVDRip
Формат: AVI
Видео: 720x540 (1.33:1), 25 fps, XviD build 50 ~2003 kbps avg, 0.21 bit/pixel
Аудио: 44.100 kHz, MPEG Layer 3, 2 ch, ~128.00 kbps avg

Подробные технические данные

GeneralComplete name : D:\МУЛЬТФИЛЬМЫ\Троицын день.aviFormat : AVIFormat/Info : Audio Video InterleaveFile size : 58.5 MiBDuration : 3mn 49sOverall bit rate : 2 141 KbpsWriting application : VirtualDubMod 1.5.10.2 (build 2540/release)Writing library : VirtualDubMod build 2540/release
VideoID : 0Format : MPEG-4 VisualFormat profile : Simple@L3Format settings, BVOP : NoFormat settings, QPel : NoFormat settings, GMC : No warppointsFormat settings, Matrix : Default (H.263)Codec ID : XVIDCodec ID/Hint : XviDDuration : 3mn 49sBit rate : 2 003 KbpsWidth : 720 pixelsHeight : 540 pixelsDisplay aspect ratio : 4:3Frame rate : 25.000 fpsColor space : YUVChroma subsampling : 4:2:0Bit depth : 8 bitsScan type : ProgressiveCompression mode : LossyBits/(Pixel*Frame) : 0.206Stream size : 54.7 MiB (94%)Writing library : XviD 1.2.1 (UTC 2008-12-04)
AudioID : 1Format : MPEG AudioFormat version : Version 1Format profile : Layer 3Codec ID : 55Codec ID/Hint : MP3Duration : 3mn 49sBit rate mode : ConstantBit rate : 128 KbpsChannel(s) : 2 channelsSampling rate : 44.1 KHzCompression mode : LossyStream size : 3.49 MiB (6%)Alignment : Split accross interleavesInterleave, duration : 40 ms (1.00 video frame)Interleave, preload duration : 500 msWriting library : LAME3.96rEncoding settings : -m s -V 4 -q 3 -lowpass 17.5 -b 128

Скриншоты




Показать сообщения:    

Текущее время: 05-Дек 17:34

Часовой пояс: UTC + 3


Вы не можете начинать темы
Вы не можете отвечать на сообщения
Вы не можете редактировать свои сообщения
Вы не можете удалять свои сообщения
Вы не можете голосовать в опросах
Вы не можете прикреплять файлы к сообщениям
Вы не можете скачивать файлы